<?xml version="1.0" standalone="no"?>
<!DOCTYPE svg PUBLIC "-//W3C//DTD SVG 1.1//EN" "http://www.w3.org/Graphics/SVG/1.1/DTD/svg11.dtd" >
<svg xmlns="http://www.w3.org/2000/svg">
<metadata></metadata>
<defs>
<font id="oxygen-sanssans-bold" horiz-adv-x="1217" >
<font-face units-per-em="2048" ascent="1638" descent="-410" />
<missing-glyph horiz-adv-x="490" />
<glyph horiz-adv-x="0" />
<glyph unicode="&#xd;" horiz-adv-x="682" />
<glyph unicode=" "  horiz-adv-x="490" />
<glyph unicode="&#x09;" horiz-adv-x="490" />
<glyph unicode="&#xa0;" horiz-adv-x="490" />
<glyph unicode="!" horiz-adv-x="613" d="M168 130q0 71 55 112q37 27 85 27q80 0 119 -64q20 -35 20 -75q0 -72 -54 -113q-37 -27 -85 -27q-78 0 -118 63q-22 35 -22 77zM198 1298v182h221v-182l-58 -859h-98z" />
<glyph unicode="&#x22;" horiz-adv-x="763" d="M102 1460h227l-49 -557h-134zM433 1460h228l-50 -557h-133z" />
<glyph unicode="#" horiz-adv-x="1227" d="M140 442l16 112h187l78 404h-194l16 112h199l72 378h142l-73 -378h240l72 378h141l-73 -378h179l-17 -112h-183l-77 -404h189l-16 -112h-195l-87 -451h-140l86 451h-240l-86 -451h-140l86 451h-182zM484 554h239l78 404h-239z" />
<glyph unicode="$" horiz-adv-x="1167" d="M126 1073q0 250 206 350q117 57 282 57q241 0 444 -101l-79 -193q-131 73 -291 87q-29 3 -56 3q-237 0 -266 -150q-4 -21 -4 -43q0 -95 68 -142q29 -19 72 -35l231 -78q205 -73 287 -171q81 -96 81 -249v-10q-5 -247 -204 -355q-125 -67 -300 -68q-208 0 -387 87 q-28 13 -53 28v234q139 -105 321 -136q54 -8 104 -8q171 0 242 92q40 53 40 128q0 94 -63 144q-44 33 -133 65l-250 82q-215 77 -271 240q-21 64 -21 142zM525 53h167l-33 -331h-86zM534 1404l38 331h86l43 -331h-167z" />
<glyph unicode="%" horiz-adv-x="1855" d="M72 1092q0 188 111 295q97 93 251 93q202 0 298 -144q66 -100 66 -244q0 -187 -109 -295q-98 -96 -255 -96q-196 0 -293 142q-69 102 -69 249zM246 1094q0 -175 102 -229q39 -20 89 -20q133 0 173 136q15 50 15 113q0 191 -118 234q-32 12 -70 12q-136 0 -176 -135 q-15 -50 -15 -111zM412 0l843 1460h183l-834 -1460h-192zM1057 371q0 188 111 295q97 93 251 93q202 0 298 -144q66 -100 66 -244q0 -187 -109 -295q-98 -96 -255 -96q-196 0 -293 142q-69 102 -69 249zM1231 373q0 -175 102 -229q39 -20 89 -20q133 0 173 136q15 50 15 113 q0 191 -118 234q-32 12 -70 12q-136 0 -176 -135q-15 -50 -15 -111z" />
<glyph unicode="&#x26;" horiz-adv-x="1414" d="M129 392q0 192 146 317q55 47 140 95q-150 167 -150 341q0 162 129 254q108 77 261 77q173 0 278 -87q98 -83 98 -218q0 -195 -244 -352q-40 -25 -83 -48l353 -390q71 80 140 214l9 18l153 -100q-64 -135 -159 -245q-10 -11 -18 -20l183 -187l-199 -77l-134 127 q-120 -88 -226 -113q-72 -16 -171 -16q-257 0 -393 128q-113 107 -113 282zM347 401q0 -154 134 -214q70 -31 163 -31q158 1 267 88l-388 430q-175 -103 -176 -273zM473 1162q1 -141 126 -267q156 80 207 185q21 43 21 86q0 118 -106 146q-28 7 -61 7q-114 0 -162 -70 q-25 -38 -25 -87z" />
<glyph unicode="'" horiz-adv-x="448" d="M140 1449h187l-23 -524h-137z" />
<glyph unicode="(" horiz-adv-x="727" d="M188 674v15q0 378 175 706q43 82 95 154h212q-158 -237 -226 -532q-38 -167 -38 -325q1 -450 262 -878h-209q-267 375 -271 860z" />
<glyph unicode=")" horiz-adv-x="734" d="M103 -186q137 205 210 489q53 206 53 398q0 353 -178 699q-38 73 -84 149h210q271 -390 271 -847q0 -354 -142 -666q-57 -125 -129 -222h-211z" />
<glyph unicode="*" horiz-adv-x="1148" d="M109 1025l58 198l337 -141l-34 387h208l-34 -387l339 141l58 -198l-347 -77q168 -217 239 -308q-13 -8 -89 -53q-77 -44 -90 -53l-183 330l-173 -329l-182 105l236 308z" />
<glyph unicode="+" horiz-adv-x="1218" d="M137 557v166h388v400h173v-400h383v-166h-384v-403h-173v403h-387z" />
<glyph unicode="," horiz-adv-x="517" d="M125 -352l69 569q3 23 3 29h218l-5 -50l-134 -548h-151z" />
<glyph unicode="-" horiz-adv-x="813" d="M116 467v181h581v-181h-581z" />
<glyph unicode="." horiz-adv-x="533" d="M146 130q0 69 53 110q37 28 85 28q76 0 115 -62q21 -35 21 -76q0 -69 -53 -109q-36 -27 -83 -27q-76 0 -116 61q-22 34 -22 75z" />
<glyph unicode="/" horiz-adv-x="934" d="M78 -163l630 1607h185l-634 -1607h-181z" />
<glyph unicode="0" d="M79 730q0 354 145 556q141 193 387 194q280 0 418 -246q109 -195 109 -504q0 -356 -143 -557q-138 -192 -384 -193q-280 0 -420 245q-112 197 -112 505zM323 738q0 -406 159 -519q57 -39 129 -39q219 0 269 340q14 96 14 216q-1 543 -283 544q-189 0 -256 -252 q-31 -121 -32 -290z" />
<glyph unicode="1" d="M197 0v180h366v1068q-109 -60 -284 -101q-43 -10 -77 -15v181q202 51 331 114q35 18 57 33h213v-1280h320v-180h-926z" />
<glyph unicode="2" d="M165 1354q128 90 312 118q61 9 118 9q213 0 335 -114q115 -107 119 -295v-15q0 -143 -72 -266q-56 -92 -185 -233l-353 -378h608l-15 -180h-832l-15 194l461 531q106 123 139 190q34 69 34 143q0 152 -131 202q-51 20 -115 20q-132 0 -265 -70q-42 -21 -72 -45z" />
<glyph unicode="3" d="M173 1367q183 113 427 113q203 0 332 -108q125 -106 126 -273q-1 -246 -225 -322q199 -59 248 -255q15 -59 15 -127q0 -213 -162 -325q-131 -90 -331 -90q-195 0 -373 92q-28 14 -52 29l72 175q123 -74 273 -92q35 -4 66 -4q171 0 237 105q33 53 33 124q0 178 -179 230 q-87 25 -225 25h-55v189h56q270 0 343 114q31 48 31 116q0 119 -110 169q-62 28 -147 28q-178 -1 -322 -93z" />
<glyph unicode="4" d="M107 342v178l593 937h266v-935h178l-14 -180h-164v-342h-224v342h-635zM337 519h405v676z" />
<glyph unicode="5" d="M155 111l79 163q133 -86 270 -105q32 -4 61 -4q180 0 261 118q51 74 51 180q0 154 -98 227q-64 46 -156 46q-122 0 -216 -85l-19 -19l-171 25l42 803h796l-16 -180h-572l-30 -432q98 68 246 68q196 0 316 -133q113 -126 113 -321q0 -229 -152 -360q-141 -122 -371 -122 q-180 0 -369 94q-40 20 -65 37z" />
<glyph unicode="6" d="M115 433v14q0 166 95 329q36 61 113 169l364 515h270l-334 -472q-22 -31 -94 -128q67 28 133 28q188 0 319 -113q134 -116 146 -299q1 -16 1 -33q0 -196 -133 -324q-133 -129 -346 -138h-26q-230 0 -371 134q-132 125 -137 318zM345 436q0 -151 99 -226q68 -51 171 -51 q157 0 233 111q49 71 49 170q0 167 -115 237q-66 40 -162 40q-157 0 -229 -108q-46 -70 -46 -173z" />
<glyph unicode="7" d="M178 1457h890v-159l-480 -1298h-245l468 1266h-625z" />
<glyph unicode="8" d="M110 375q0 192 145 315q57 48 130 79q-171 73 -225 217q-21 57 -21 122q0 183 150 285q129 87 321 87q215 0 345 -106q123 -101 124 -266q0 -219 -222 -331q-8 -4 -15 -7q141 -60 213 -191q52 -95 52 -204q0 -193 -158 -302q-136 -93 -338 -93q-213 0 -352 102 q-148 109 -149 293zM342 394q0 -178 160 -222q49 -13 109 -13q264 2 265 236q0 160 -142 245q-54 32 -123 49q-183 -45 -243 -175q-26 -55 -26 -120zM365 1109q0 -215 241 -273q3 -1 5 -1q241 56 242 274q0 119 -102 170q-59 29 -140 29q-145 0 -210 -85q-36 -48 -36 -114z " />
<glyph unicode="9" d="M127 1012q0 196 131 326q131 131 342 141q17 1 32 1q227 0 369 -134q132 -124 140 -316v-21q0 -166 -99 -332q-35 -58 -107 -156l-389 -521h-278l377 490q21 28 81 105q-70 -30 -133 -30q-188 0 -319 113q-134 116 -146 302q-1 16 -1 32zM358 1016q0 -169 117 -239 q66 -39 161 -39q157 0 229 108q47 70 47 175q0 160 -110 228q-66 41 -160 41q-164 0 -239 -111q-45 -68 -45 -163z" />
<glyph unicode=":" horiz-adv-x="605" d="M174 938q0 69 53 110q37 28 85 28q76 0 115 -62q21 -35 21 -76q0 -69 -53 -109q-36 -27 -83 -27q-76 0 -116 61q-22 34 -22 75zM175 130q0 69 53 110q37 28 85 28q76 0 115 -62q21 -35 21 -76q0 -69 -53 -109q-36 -27 -83 -27q-76 0 -116 61q-22 34 -22 75z" />
<glyph unicode=";" horiz-adv-x="600" d="M184 -306l54 535h207l-124 -535h-137zM202 921q0 69 53 110q37 28 85 28q76 0 115 -62q21 -35 21 -76q0 -69 -53 -109q-36 -27 -83 -27q-76 0 -116 61q-22 34 -22 75z" />
<glyph unicode="&#x3c;" horiz-adv-x="1157" d="M107 613v113l940 482v-186l-704 -347l702 -320l1 -193z" />
<glyph unicode="=" d="M143 467v181h931v-181h-931zM143 851v181h931v-181h-931z" />
<glyph unicode="&#x3e;" horiz-adv-x="1161" d="M147 166v194l701 315l-700 350v187l940 -487v-112z" />
<glyph unicode="?" horiz-adv-x="971" d="M117 1364q117 101 292 114q21 2 42 2q171 0 282 -90q111 -94 112 -248q0 -156 -118 -310q-29 -38 -135 -156q-109 -122 -146 -203q-7 -18 -13 -34h-102q33 178 133 349q10 18 31 52q66 108 82 163q13 43 13 86q-1 101 -81 148q-42 25 -92 25q-97 0 -230 -76q-6 -3 -10 -6 zM246 130q0 71 54 112q37 27 85 27q78 0 116 -64q20 -35 20 -75q0 -72 -53 -113q-36 -27 -83 -27q-77 0 -117 63q-22 35 -22 77z" />
<glyph unicode="@" horiz-adv-x="1880" d="M128 638q0 303 173 527q162 209 424 285q126 36 263 36q287 0 491 -150q201 -149 255 -397q18 -81 18 -167q0 -247 -132 -395q-94 -106 -215 -119q-15 -2 -29 -2q-165 0 -224 163q-8 23 -13 46q-67 -145 -182 -193q-48 -20 -100 -20q-171 0 -252 134q-52 87 -52 211 q0 178 96 314q108 153 288 176q29 4 58 4q126 0 258 -45q36 -13 63 -26q-8 -60 -26 -173q-39 -247 -39 -333q0 -83 58 -121q30 -19 67 -19q91 0 156 95q77 115 77 311q0 219 -129 372q-157 187 -450 202q-25 1 -49 1q-282 0 -472 -180q-163 -154 -207 -391q-14 -74 -14 -150 q0 -262 143 -438q152 -188 417 -213q38 -4 76 -4q235 0 429 97q20 9 37 19l43 -116q-157 -105 -413 -126q-50 -4 -99 -4q-324 0 -536 178q-210 177 -249 482q-8 63 -8 129zM710 594q0 -163 93 -209q32 -16 71 -16q123 0 181 142q29 73 51 206q1 6 11 68q22 126 30 177 q-83 18 -136 18q-136 0 -222 -121q-79 -112 -79 -265z" />
<glyph unicode="A" horiz-adv-x="1365" d="M28 0l509 1460h291l509 -1460h-240l-152 424h-528l-144 -424h-245zM472 594h418l-206 659z" />
<glyph unicode="B" horiz-adv-x="1333" d="M148 0v1460h494q359 0 479 -141q70 -84 70 -221q0 -199 -169 -297q-19 -10 -39 -20q252 -93 253 -354q0 -237 -182 -347q-132 -80 -340 -80h-566zM388 180h292q261 0 307 169q11 40 11 89q0 157 -122 211q-80 35 -224 35h-264v-504zM388 854h287q184 0 242 83 q33 48 33 127q0 130 -92 176q-74 36 -237 36h-233v-422z" />
<glyph unicode="C" horiz-adv-x="1288" d="M96 734q0 305 175 508q155 179 399 225q72 13 147 13q230 0 402 -108l-73 -180q-153 88 -315 88q-185 0 -315 -118q-163 -147 -166 -422v-11q0 -366 227 -491q107 -58 258 -58q145 0 297 71l22 11q10 4 14 6l51 -189q-158 -82 -321 -96q-41 -3 -83 -3q-304 0 -495 173 q-210 190 -223 536q-1 22 -1 45z" />
<glyph unicode="D" horiz-adv-x="1486" d="M148 0v1460h427q402 0 617 -202q198 -189 198 -522q0 -354 -220 -549q-210 -187 -568 -187h-454zM388 180h218q322 0 453 219q79 133 79 332q0 488 -447 539q-54 6 -113 6h-190v-1096z" />
<glyph unicode="E" horiz-adv-x="1161" d="M148 0v1460h920l-10 -186h-670v-420h627v-187h-627v-476h697l-8 -191h-929z" />
<glyph unicode="F" horiz-adv-x="1102" d="M148 0v1460h923l-11 -193h-672v-445h616v-184h-616v-638h-240z" />
<glyph unicode="G" horiz-adv-x="1432" d="M96 730q0 308 174 511q160 185 417 228q68 11 139 11q226 0 402 -89q23 -11 45 -24l-61 -188q-150 76 -267 94q-51 7 -103 7q-225 0 -359 -151q-133 -150 -133 -397q0 -363 212 -490q104 -62 253 -62q154 0 263 42v356h-321l9 200h540v-697q-244 -101 -511 -101 q-314 0 -502 195q-180 186 -196 499q-1 28 -1 56z" />
<glyph unicode="H" horiz-adv-x="1480" d="M148 0v1460h240v-617h704v617h240v-1460h-240v655h-704v-655h-240z" />
<glyph unicode="I" horiz-adv-x="844" d="M98 0v150h206v1160h-206v150h648v-150h-202v-1160h202v-150h-648z" />
<glyph unicode="J" horiz-adv-x="798" d="M19 -31l125 16q147 19 202 68q63 60 64 205v1202h240v-1207q0 -232 -107 -334q-90 -87 -303 -118q-40 -5 -87 -10l-112 -11z" />
<glyph unicode="K" horiz-adv-x="1316" d="M148 0v1460h240v-686l619 686h284l-579 -654l612 -806h-288l-513 680l-135 -134v-546h-240z" />
<glyph unicode="L" horiz-adv-x="1097" d="M148 0v1460h240v-1280h652l-12 -180h-880z" />
<glyph unicode="M" horiz-adv-x="1811" d="M144 0l36 1460h252l474 -999l479 999h246l36 -1460h-223l-13 693l-2 407l-438 -909h-175l-432 916l-3 -417l-12 -690h-225z" />
<glyph unicode="N" horiz-adv-x="1526" d="M148 0v1460h262l751 -1150l-11 461v689h228v-1460h-272l-745 1129l15 -546v-583h-228z" />
<glyph unicode="O" horiz-adv-x="1615" d="M96 724q0 333 181 537q172 193 461 216q36 3 72 3q300 0 490 -180t216 -489q3 -44 3 -88q0 -329 -180 -529q-174 -194 -472 -212q-28 -2 -57 -2q-313 0 -504 184t-208 501q-2 30 -2 59zM350 723q0 -258 133 -406q123 -137 326 -137q226 0 349 166q107 145 107 377 q0 265 -133 418q-122 139 -322 139q-215 0 -341 -159q-119 -152 -119 -398z" />
<glyph unicode="P" horiz-adv-x="1258" d="M148 0v1460h524q394 0 491 -207q33 -73 33 -169q0 -282 -231 -371q-117 -45 -294 -45h-283v-668h-240zM388 856h276q181 0 238 68q41 49 41 154q0 139 -109 180q-58 22 -152 22h-294v-424z" />
<glyph unicode="Q" horiz-adv-x="1615" d="M96 724q0 333 181 537q172 193 461 216q36 3 72 3q300 0 490 -180t216 -489q3 -44 3 -88q0 -329 -180 -529q-174 -194 -472 -212q-28 -2 -57 -2q-313 0 -504 184t-208 501q-2 30 -2 59zM350 723q0 -258 133 -406q123 -137 326 -137q226 0 349 166q107 145 107 377 q0 265 -133 418q-122 139 -322 139q-215 0 -341 -159q-119 -152 -119 -398zM844 81l204 66q113 -215 320 -429q14 -15 27 -28l-164 -124q-137 124 -265 307q-79 113 -122 208z" />
<glyph unicode="R" horiz-adv-x="1341" d="M148 0v1460h582q322 0 433 -153q68 -93 68 -247q0 -238 -172 -339q-34 -20 -76 -36q57 -134 286 -644q9 -22 18 -41h-274q-196 475 -266 649h-359v-649h-240zM388 821h332q168 0 222 78q37 54 37 157q0 189 -167 218q-34 6 -73 6h-351v-459z" />
<glyph unicode="S" horiz-adv-x="1203" d="M126 1073q0 250 206 350q117 57 282 57q241 0 444 -101l-79 -193q-131 73 -291 87q-29 3 -56 3q-237 0 -266 -150q-4 -21 -4 -43q0 -95 68 -142q29 -19 72 -35l231 -78q205 -73 287 -171q81 -96 81 -249v-10q-5 -247 -204 -355q-125 -67 -300 -68q-208 0 -387 87 q-28 13 -53 28v234q139 -105 321 -136q54 -8 104 -8q171 0 242 92q40 53 40 128q0 94 -63 144q-44 33 -133 65l-250 82q-215 77 -271 240q-21 64 -21 142z" />
<glyph unicode="T" horiz-adv-x="1165" d="M18 1280v180h1129v-180h-445v-1280h-240v1280h-444z" />
<glyph unicode="U" horiz-adv-x="1438" d="M122 528v932h240v-919q0 -252 183 -330q74 -31 172 -31q230 0 315 161q44 82 44 201v918h240v-934q0 -257 -165 -403q-160 -143 -434 -143q-313 0 -470 179q-125 142 -125 369z" />
<glyph unicode="V" horiz-adv-x="1334" d="M30 1460h260q40 -124 121 -372q174 -536 258 -808q20 63 380 1180h255l-511 -1460h-268z" />
<glyph unicode="W" horiz-adv-x="2048" d="M34 1460h246l293 -1132l335 1114h233l317 -1119l310 1137h246l-426 -1460h-247l-316 1116l-342 -1116h-238z" />
<glyph unicode="X" horiz-adv-x="1313" d="M26 0l501 747l-469 713h272l350 -531l336 531h255l-464 -723l485 -737h-273l-361 548l-375 -548h-257z" />
<glyph unicode="Y" horiz-adv-x="1260" d="M24 1460h256l354 -677l349 677h253l-481 -894v-566h-240v564z" />
<glyph unicode="Z" horiz-adv-x="1242" d="M143 0v160l709 1120h-689v180h961l3 -167l-700 -1113h713l-8 -180h-989z" />
<glyph unicode="[" horiz-adv-x="735" d="M205 -175v1635h455v-162h-241v-1311h241v-162h-455z" />
<glyph unicode="\" horiz-adv-x="894" d="M115 1460h198l505 -1460h-195z" />
<glyph unicode="]" horiz-adv-x="736" d="M106 -13h241v1310h-241v163h454v-1635h-454v162z" />
<glyph unicode="^" horiz-adv-x="1178" d="M94 545l443 915h117l469 -915h-184l-342 680l-320 -680h-183z" />
<glyph unicode="_" horiz-adv-x="1051" d="M66 -62h951v-159h-951v159z" />
<glyph unicode="`" horiz-adv-x="544" d="M51 1460h265l185 -402h-141z" />
<glyph unicode="a" horiz-adv-x="1042" d="M88 292q0 199 155 271q108 50 302 50h161v69q0 187 -163 218q-29 5 -62 5q-121 0 -288 -67l-47 161q182 77 357 77q239 0 347 -148q75 -102 75 -266v-662h-162l-31 153q-120 -164 -299 -171h-14q-164 0 -255 98q-76 82 -76 212zM299 312q0 -132 106 -159q25 -6 53 -6 q116 0 213 90q19 18 34 36v202h-107q-193 0 -254 -49q-45 -37 -45 -114z" />
<glyph unicode="b" horiz-adv-x="1178" d="M130 0v1460l222 20v-377l-3 -195q89 142 260 164q28 4 57 4q221 0 338 -169q100 -145 100 -373q0 -269 -134 -419q-119 -133 -309 -133q-168 0 -280 114q-26 28 -47 60l-17 -156h-187zM347 546q0 -294 158 -370q49 -24 111 -24q170 0 231 172q31 86 31 209 q0 330 -205 367q-25 4 -51 4q-205 0 -258 -208q-17 -66 -17 -150z" />
<glyph unicode="c" horiz-adv-x="954" d="M74 531q0 255 151 405q136 136 349 140h11q188 0 300 -78l-55 -154q-95 60 -219 60q-147 0 -233 -110q-78 -101 -78 -265q2 -376 323 -377q108 0 223 66l33 -157q-111 -79 -296 -79q-235 0 -373 151q-136 148 -136 398z" />
<glyph unicode="d" horiz-adv-x="1183" d="M74 537q0 251 131 400q124 139 322 139q206 -1 311 -135l-7 169v350l224 20v-1480h-181l-21 168q-97 -185 -325 -186q-221 0 -343 164q-111 149 -111 391zM300 533q0 -361 244 -380q14 -1 27 -1q267 2 269 366q0 335 -191 379q-32 7 -67 7q-190 0 -253 -177 q-29 -81 -29 -194z" />
<glyph unicode="e" horiz-adv-x="1049" d="M76 528q0 254 140 406q136 140 342 142q207 0 319 -161q94 -137 94 -348l-8 -105h-659q17 -251 227 -300q48 -11 102 -11q134 0 267 66q1 1 2 1l34 -154q-125 -82 -312 -82q-232 0 -381 132q-167 149 -167 414zM308 613h467q-16 290 -213 291q-131 0 -200 -111 q-46 -73 -54 -180z" />
<glyph unicode="f" horiz-adv-x="718" d="M30 912l5 127l164 17v47q0 269 165 338q67 28 165 28q93 0 181 -18l-20 -160q-66 12 -121 12q-81 0 -111 -35q-35 -42 -35 -148v-62h248v-146h-248v-912h-224v912h-169z" />
<glyph unicode="g" horiz-adv-x="1176" d="M74 533q0 247 131 397q131 144 331 146q203 0 294 -154q4 -7 7 -13l11 149h206v-990q0 -272 -158 -410q-131 -113 -355 -113q-149 0 -335 51l27 172q162 -47 280 -47q234 0 310 167q31 68 31 154q0 68 -6 161q-71 -141 -228 -176q-45 -10 -93 -10q-209 0 -334 150 q-119 144 -119 366zM300 540q0 -307 202 -347q30 -6 62 -6q267 2 269 325v54q0 326 -245 338h-18q-185 0 -245 -186q-25 -77 -25 -178z" />
<glyph unicode="h" horiz-adv-x="1141" d="M128 0v1460l224 20v-347l-6 -247q78 147 235 181q41 9 84 9q233 0 320 -182q46 -97 46 -237v-657h-224v640q0 180 -74 234q-42 30 -111 30q-208 0 -256 -202q-16 -68 -16 -163v-539h-222z" />
<glyph unicode="i" horiz-adv-x="518" d="M126 1340q0 87 82 112q26 8 56 8q100 0 128 -70q9 -23 9 -50q0 -88 -82 -113q-25 -7 -55 -7q-99 0 -128 68q-10 24 -10 52zM158 0v1058h220v-1058h-220z" />
<glyph unicode="j" horiz-adv-x="567" d="M-14 -205l40 4q104 10 138 44q38 38 40 150v17v1048h220v-1037q0 -195 -49 -274q-47 -76 -173 -104q-54 -11 -133 -18l-61 -5zM180 1340q0 87 82 112q26 8 56 8q100 0 128 -70q9 -23 9 -50q0 -88 -82 -113q-25 -7 -55 -7q-99 0 -128 68q-10 24 -10 52z" />
<glyph unicode="k" horiz-adv-x="1069" d="M128 0v1460l222 20v-697l-6 -211l442 486h275l-444 -480l466 -578h-263l-369 465l-101 -94v-371h-222z" />
<glyph unicode="l" horiz-adv-x="644" d="M138 327v1133l222 20v-1171q0 -89 54 -118q34 -18 101 -24l95 -8l-13 -165h-72q-203 0 -287 61q-99 77 -100 272z" />
<glyph unicode="m" horiz-adv-x="1699" d="M126 0v1058h182l24 -184q84 186 274 201q16 1 32 1q215 -1 281 -222q101 221 329 222q334 -2 335 -400v-676h-221v603q0 164 -28 224q-36 76 -132 77q-112 0 -178 -109q-57 -94 -57 -235v-560h-221v605q0 184 -42 246q-38 53 -120 53q-132 0 -195 -130q-42 -88 -42 -215 v-559h-221z" />
<glyph unicode="n" horiz-adv-x="1160" d="M126 0v1058h185l24 -200q78 175 246 209q45 9 95 9q201 0 298 -149q72 -110 72 -281v-646h-224v628q0 211 -112 260q-39 16 -90 16q-143 0 -217 -138q-53 -100 -53 -237v-529h-224z" />
<glyph unicode="o" horiz-adv-x="1173" d="M76 519v11q0 269 154 416q136 130 357 130q237 0 375 -153q135 -148 135 -393q0 -253 -144 -403q-139 -145 -366 -145q-226 0 -366 146q-141 147 -145 391zM302 530q0 -237 125 -329q67 -49 160 -49q180 0 249 167q35 88 35 211q0 256 -143 339q-60 35 -141 35 q-171 0 -243 -152q-42 -91 -42 -222z" />
<glyph unicode="p" horiz-adv-x="1163" d="M122 -441v1499h185l23 -188q95 205 333 206q206 0 322 -164q105 -148 105 -382q0 -249 -126 -400q-124 -148 -326 -148q-166 0 -268 129q-16 20 -29 42l5 -190v-404h-224zM343 548q1 -395 262 -396q175 0 233 183q26 83 26 197q0 339 -212 369q-20 3 -41 3 q-266 0 -268 -354v-2z" />
<glyph unicode="q" horiz-adv-x="1173" d="M74 528q0 255 132 406q125 142 321 142q211 0 306 -180q4 -9 8 -17l16 179h200v-1487l-224 -12v421l4 178q-93 -175 -309 -176q-203 0 -328 147q-126 151 -126 399zM300 531q0 -244 124 -335q61 -44 143 -44q240 0 267 298q4 39 4 81q0 302 -174 359q-44 14 -99 14 q-143 0 -213 -129q-52 -96 -52 -244z" />
<glyph unicode="r" horiz-adv-x="775" d="M132 0v1058h185l25 -201q92 190 281 206q21 2 43 2q46 0 76 -6l-5 -173q-36 7 -81 7q-206 0 -272 -155q-28 -66 -28 -154v-584h-224z" />
<glyph unicode="s" horiz-adv-x="918" d="M115 777q0 170 144 249q93 50 220 50q178 -1 327 -87l-60 -173q-128 88 -262 88q-109 0 -150 -59q-17 -25 -17 -56q0 -56 41 -86q36 -26 117 -54l89 -30q201 -67 251 -191q20 -49 20 -112q0 -216 -171 -295q-83 -39 -195 -39q-159 0 -310 66q-16 7 -30 14v195 q187 -102 335 -102q128 0 162 85q10 25 10 55q0 57 -49 92q-39 27 -114 52l-106 36q-167 56 -219 150q-33 61 -33 152z" />
<glyph unicode="t" horiz-adv-x="774" d="M19 912l7 135l172 11l21 294l191 15v-309h272v-146h-272v-551q0 -114 28 -149q25 -31 104 -41q19 -2 110 -10l46 -4l-9 -163h-136q-210 0 -290 82q-70 71 -76 247q-1 22 -1 44v545h-167z" />
<glyph unicode="u" horiz-adv-x="1147" d="M109 400v658h224v-649q0 -192 109 -239q42 -18 100 -18q177 0 230 144q27 74 27 195v567h224v-1058h-179l-22 165q-89 -175 -312 -183h-22q-276 0 -352 229q-27 82 -27 189z" />
<glyph unicode="v" horiz-adv-x="1052" d="M14 1058h234q28 -80 85 -239q138 -387 203 -584l74 240l202 583h226l-399 -1058h-214z" />
<glyph unicode="w" horiz-adv-x="1510" d="M24 1058h213l191 -800l225 800h217l221 -798l196 798h199l-294 -1058h-200l-237 831l-243 -831h-202z" />
<glyph unicode="x" horiz-adv-x="1061" d="M16 0l386 549l-366 509h247l269 -373l244 373h238l-369 -530l380 -528h-249l-282 392l-262 -392h-236z" />
<glyph unicode="y" horiz-adv-x="1047" d="M33 1058h225l292 -755l255 755h231l-555 -1502l-202 32l172 450z" />
<glyph unicode="z" horiz-adv-x="889" d="M87 0v140l494 758h-472v160h714v-154l-481 -738h494v-166h-749z" />
<glyph unicode="{" horiz-adv-x="738" d="M75 518v185q135 1 178 67q30 50 30 169v262q0 210 177 271q82 27 204 27v-176q-107 -2 -141 -46q-30 -40 -30 -144v-260q-1 -138 -79 -206q-39 -34 -101 -59q138 -40 170 -161q10 -42 10 -93v-261q0 -113 35 -150q37 -37 136 -39v-173q-243 0 -327 112q-54 74 -54 203 v233q0 132 -40 182q-47 56 -168 57z" />
<glyph unicode="|" horiz-adv-x="499" d="M179 -317v1797h177v-1797h-177z" />
<glyph unicode="}" horiz-adv-x="738" d="M98 -96q105 2 139 43q31 40 31 146v261q0 148 106 220q33 22 75 39q-179 62 -181 261v259q0 113 -35 151q-37 38 -135 40v175q239 0 322 -109q57 -75 57 -210v-240q0 -128 36 -176q46 -57 174 -59v-185q-138 0 -181 -74q-29 -52 -29 -165v-256q0 -194 -147 -257 q-87 -37 -232 -37v173z" />
<glyph unicode="~" horiz-adv-x="1181" d="M114 606q78 173 238 191q18 2 36 2q98 0 239 -62q4 -2 7 -3q144 -62 200 -68q10 -1 18 -1q111 1 210 140l69 -119q-53 -114 -159 -165q-62 -29 -130 -29q-88 0 -217 56q-12 5 -25 11q-120 55 -175 64q-23 4 -44 4q-98 0 -174 -108q-13 -19 -24 -39z" />
<glyph unicode="&#xa1;" horiz-adv-x="574" d="M178 1060q0 72 54 113q37 27 85 27q78 0 118 -63q22 -35 22 -77q0 -71 -55 -112q-37 -27 -85 -27q-80 0 -119 64q-20 35 -20 75zM206 -108l58 859h98l65 -859v-182h-221v182z" />
<glyph unicode="&#xa2;" horiz-adv-x="982" d="M74 531q0 255 151 405q136 136 349 140h11q188 0 300 -78l-55 -154q-95 60 -219 60q-147 0 -233 -110q-78 -101 -78 -265q2 -376 323 -377q108 0 223 66l33 -157q-111 -79 -296 -79q-235 0 -373 151q-136 148 -136 398zM495 53h157l-38 -331h-86zM505 1009l38 331h86 l33 -331h-157z" />
<glyph unicode="&#xa3;" horiz-adv-x="1085" d="M82 660v162h180v103q0 471 309 539q54 12 117 12q208 -1 363 -132l-94 -147q-137 95 -262 97q-181 0 -215 -191q-8 -48 -8 -107v-174h387v-162h-387v-459h595l-9 -191h-960l-11 169l175 20v461h-180z" />
<glyph unicode="&#xa4;" horiz-adv-x="1152" d="M85 1132l89 86l177 -169q111 85 249 85q141 -1 248 -86l181 170l84 -88l-179 -172q74 -111 74 -236q-1 -131 -73 -236l177 -171l-83 -88l-181 170q-109 -85 -248 -85q-143 1 -250 84l-176 -168l-88 86l180 172q-74 108 -74 236q1 127 74 236zM322 722q0 -124 85 -207 q80 -77 193 -77q129 0 211 94q69 80 69 190q0 123 -85 207q-80 79 -195 79q-125 0 -206 -92q-72 -82 -72 -194z" />
<glyph unicode="&#xa5;" horiz-adv-x="1260" d="M24 1460h256l354 -677l349 677h253l-481 -894v-566h-240v564zM192 250v147h399v146h-398v141h883v-141h-397v-146h397v-147h-884z" />
<glyph unicode="&#xa6;" horiz-adv-x="564" d="M211 -303v707h177v-707h-177zM211 765v705h177v-705h-177z" />
<glyph unicode="&#xa7;" horiz-adv-x="918" d="M116 744q1 121 106 206q-93 68 -104 193q-1 18 -1 38q0 170 144 249q93 50 220 50q178 -1 327 -87l-60 -173q-128 88 -262 88q-109 0 -150 -59q-17 -25 -17 -56q0 -56 41 -86q36 -26 117 -54l89 -30q201 -67 251 -191q20 -49 20 -112q-1 -114 -90 -198q90 -79 90 -208 q0 -216 -171 -295q-83 -39 -195 -39q-159 0 -310 66q-16 7 -30 14v195q187 -102 335 -102q128 0 162 85q10 25 10 55q0 57 -49 92q-39 27 -114 52l-106 36q-200 67 -241 191q-12 37 -12 80zM319 787q0 -56 41 -86q36 -26 117 -54l89 -30q19 -6 36 -13q36 37 36 95 q0 57 -49 92q-39 27 -114 52l-101 34q-54 -32 -55 -90z" />
<glyph unicode="&#xa8;" horiz-adv-x="719" d="M0 1328q0 69 53 110q37 28 85 28q76 0 115 -62q21 -35 21 -76q0 -69 -53 -109q-36 -27 -83 -27q-76 0 -116 61q-22 34 -22 75zM445 1328q0 69 53 110q37 28 85 28q76 0 115 -62q21 -35 21 -76q0 -69 -53 -109q-36 -27 -83 -27q-76 0 -116 61q-22 35 -22 75z" />
<glyph unicode="&#xa9;" horiz-adv-x="1675" d="M69 747q0 297 184 502q155 175 394 231q93 22 189 22q254 0 456 -138q206 -141 280 -377q35 -114 35 -240q0 -296 -182 -502q-156 -177 -395 -234q-95 -23 -193 -23q-251 0 -451 138q-205 141 -280 376q-37 116 -37 245zM191 747q0 -258 156 -438q140 -161 355 -204 q67 -13 135 -13q234 0 409 137.5t224 362.5q16 75 16 154q0 258 -158 437q-141 160 -361 202q-65 12 -131 12q-232 0 -406 -136q-175 -137 -223 -360q-16 -75 -16 -154zM369 740q0 196 118 336q113 135 287 157q30 4 60 4q172 -1 298 -86l-52 -105q-97 64 -222 70h-16 q-150 0 -242 -111q-85 -103 -85 -262q0 -190 113 -294q89 -82 220 -82q132 1 240 67l46 -104q-131 -83 -296 -83q-184 0 -315 121q-132 122 -151 314q-3 29 -3 58z" />
<glyph unicode="&#xaa;" horiz-adv-x="1050" d="M142 837q0 163 136 221q95 41 265 41h141v56q0 153 -143 178q-25 4 -54 4q-106 0 -253 -54l-41 131q160 63 313 63q210 0 304 -121q66 -83 66 -217v-540h-142l-27 125q-105 -134 -262 -140h-13q-143 0 -223 80q-67 67 -67 173zM327 854q0 -108 93 -130q22 -5 47 -5 q101 0 186 73q17 15 30 30v164h-94q-169 0 -222 -39q-40 -31 -40 -93z" />
<glyph unicode="&#xab;" horiz-adv-x="982" d="M68 552l305 418h176l-268 -415l262 -417h-173zM462 552l304 418h176l-267 -415l262 -417h-173z" />
<glyph unicode="&#xac;" horiz-adv-x="1174" d="M94 646v172h981v-567h-170v395h-811z" />
<glyph unicode="&#xad;" horiz-adv-x="797" d="M87 303v182h659v-182h-659z" />
<glyph unicode="&#xae;" horiz-adv-x="1670" d="M68 742q0 295 181 502q154 177 390 235q96 23 194 23q252 0 453 -139q204 -141 280 -375q37 -117 37 -246q0 -295 -182 -502q-155 -176 -393 -234q-96 -23 -194 -23q-251 0 -451 139q-205 141 -279 377q-36 116 -36 243zM190 742q0 -258 156 -438q139 -161 355 -204 q66 -13 133 -13q232 0 406 137q175 137 224 360q17 76 17 157q0 257 -156 437q-140 162 -356 206q-67 13 -136 13q-231 0 -404.5 -137.5t-222.5 -362.5q-16 -75 -16 -155zM528 277v946h320q261 0 316 -152q16 -45 16 -103q0 -187 -150 -238q-23 -8 -48 -13q41 -54 238 -440 h-159l-157 310q-52 99 -62 110h-171v-420h-143zM671 822h167q131 0 172 44q29 34 29 98q0 87 -52 114q-43 21 -170 21h-146v-277z" />
<glyph unicode="&#xaf;" horiz-adv-x="929" d="M133 1310v150h653v-150h-653z" />
<glyph unicode="&#xb0;" horiz-adv-x="789" d="M87 1192q0 130 94 213q87 77 214 77q144 0 233 -94q76 -81 76 -196q0 -125 -88 -211q-89 -86 -221 -86q-144 0 -233 98q-75 84 -75 199zM228 1191q0 -95 72 -143q42 -29 95 -29q85 0 133 64q34 46 34 108q0 93 -72 141q-42 28 -94 28q-85 0 -133 -63q-35 -45 -35 -106z " />
<glyph unicode="&#xb1;" horiz-adv-x="1218" d="M142 0v159h934v-159h-934zM151 612v173h368v365h173v-365h365v-173h-365v-374h-173v374h-368z" />
<glyph unicode="&#xb2;" horiz-adv-x="744" d="M80 1320q66 103 205 132q42 8 85 8q122 0 204 -76q79 -75 79 -190q0 -131 -105 -251q-50 -58 -192 -180q-20 -18 -32 -28h325l-13 -135h-541v132q15 16 74 67q187 167 256 256q65 82 65 132q0 79 -66 113q-30 15 -65 15q-105 0 -177 -71q-14 -14 -25 -29z" />
<glyph unicode="&#xb3;" horiz-adv-x="759" d="M137 677l54 121q50 -47 147 -64q28 -5 50 -5q104 0 129 82q7 22 7 49q0 90 -101 117q-36 10 -81 10l-80 -1v136h80q142 0 156 90q1 8 1 17q0 76 -66 98q-20 6 -44 6q-82 0 -160 -42q-20 -10 -33 -21l-55 107q80 74 210 88q23 3 46 3q132 0 205 -79q57 -63 57 -159 q-2 -114 -104 -160q-10 -5 -19 -8q90 -37 126 -122q16 -39 16 -82q0 -141 -108 -214q-76 -50 -177 -50q-127 0 -223 59q-18 12 -33 24z" />
<glyph unicode="&#xb4;" horiz-adv-x="585" d="M149 1058l178 402h269l-309 -402h-138z" />
<glyph unicode="&#xb5;" horiz-adv-x="1230" d="M185 430v646h224v-628q0 -211 112 -260q39 -16 90 -16q143 0 217 138q53 100 53 237v529h224v-1058h-185l-24 200q-78 -175 -246 -209q-45 -9 -95 -9q-201 0 -298 149q-72 110 -72 281z" />
<glyph unicode="&#xb6;" horiz-adv-x="1090" d="M84 1161q0 222 220 297q102 34 243 34h446v-154h-77v-1388h-153v1388h-168v-1388h-152v891q-201 0 -297 124q-62 81 -62 196z" />
<glyph unicode="&#xb7;" horiz-adv-x="405" d="M116 558v163h168v-163h-168z" />
<glyph unicode="&#xb8;" horiz-adv-x="550" d="M83 -398l109 399h126l-49 -399h-186z" />
<glyph unicode="&#xb9;" horiz-adv-x="732" d="M152 1210v157q21 4 159 79q42 23 48 28l144 -1v-712h149v-146h-487v146h154v522q-63 -34 -153 -68q-10 -4 -14 -5z" />
<glyph unicode="&#xba;" horiz-adv-x="844" d="M65 1105q0 191 108 299q96 96 248 96q199 0 293 -148q63 -101 63 -247q0 -172 -101 -282q-100 -108 -255 -108q-185 0 -282 135q-74 104 -74 255zM242 1105q1 -245 179 -246q185 2 186 243q0 212 -133 247q-25 7 -53 7q-147 0 -174 -173q-5 -36 -5 -78z" />
<glyph unicode="&#xbb;" horiz-adv-x="1029" d="M101 138l267 415l-263 417h173l302 -414l-304 -418h-175zM488 138l265 415l-260 417h171l303 -414l-306 -418h-173z" />
<glyph unicode="&#xbc;" horiz-adv-x="1581" d="M63 1211v142q76 31 172 89q19 11 28 18h135v-735h137v-141h-458v141h146v559q-66 -35 -154 -71q-4 -1 -6 -2zM289 0l958 1460h176l-953 -1460h-181zM927 180v122l374 546h162v-543h113l-5 -125h-108v-180h-152v180h-384zM1094 305h217v346z" />
<glyph unicode="&#xbd;" horiz-adv-x="1647" d="M63 1211v142q76 31 172 89q19 11 28 18h135v-735h137v-141h-458v141h146v559q-66 -35 -154 -71q-4 -1 -6 -2zM289 0l958 1460h176l-953 -1460h-181zM1034 700q66 103 205 132q42 8 85 8q122 0 204 -76q79 -75 79 -190q0 -131 -105 -251q-50 -58 -192 -180 q-20 -18 -32 -28h325l-13 -135h-541v132q15 16 74 67q321 286 321 388q0 79 -66 113q-30 15 -65 15q-105 0 -177 -71q-14 -14 -25 -29z" />
<glyph unicode="&#xbe;" horiz-adv-x="1569" d="M63 1211v142q76 31 172 89q19 11 28 18h135v-735h137v-141h-458v141h146v559q-66 -35 -154 -71q-4 -1 -6 -2zM289 0l958 1460h176l-953 -1460h-181zM927 180v122l374 546h162v-543h113l-5 -125h-108v-180h-152v180h-384zM1094 305h217v346z" />
<glyph unicode="&#xbf;" horiz-adv-x="971" d="M122 47q0 156 118 310q29 38 135 156q109 122 146 203q7 18 13 34h102q-33 -178 -133 -349q-10 -18 -31 -52q-66 -108 -82 -163q-13 -43 -13 -86q1 -101 81 -148q42 -25 92 -25q97 0 230 76q6 3 10 6l60 -184q-117 -101 -292 -114q-21 -2 -42 -2q-171 0 -282 90 q-111 94 -112 248zM446 1059q0 72 53 113q36 27 83 27q77 0 117 -63q22 -35 22 -77q0 -71 -54 -112q-37 -27 -85 -27q-78 0 -116 64q-20 35 -20 75z" />
<glyph unicode="&#xc0;" horiz-adv-x="1365" d="M28 0l509 1460h291l509 -1460h-240l-152 424h-528l-144 -424h-245zM303 2004h265l185 -402h-141zM472 594h418l-206 659z" />
<glyph unicode="&#xc1;" horiz-adv-x="1365" d="M28 0l509 1460h291l509 -1460h-240l-152 424h-528l-144 -424h-245zM472 594h418l-206 659zM613 1602l178 402h269l-309 -402h-138z" />
<glyph unicode="&#xc2;" horiz-adv-x="1365" d="M28 0l509 1460h291l509 -1460h-240l-152 424h-528l-144 -424h-245zM361 1602l222 388h202l218 -388h-162l-164 239l-156 -239h-160zM472 594h418l-206 659z" />
<glyph unicode="&#xc3;" horiz-adv-x="1365" d="M28 0l509 1460h291l509 -1460h-240l-152 424h-528l-144 -424h-245zM361 1602q0 147 84 205q43 29 102 29q76 0 184 -50q74 -33 97 -33q38 0 54 53q4 14 7 29h115q0 -136 -71 -197q-41 -36 -100 -36q-60 0 -165 52q-83 41 -112 44q-5 1 -9 1q-53 0 -72 -95v-2h-114z M472 594h418l-206 659z" />
<glyph unicode="&#xc4;" horiz-adv-x="1365" d="M28 0l509 1460h291l509 -1460h-240l-152 424h-528l-144 -424h-245zM323 1738q0 69 53 110q37 28 85 28q76 0 115 -62q21 -35 21 -76q0 -69 -53 -109q-36 -27 -83 -27q-76 0 -116 61q-22 34 -22 75zM472 594h418l-206 659zM768 1738q0 69 53 110q37 28 85 28q76 0 115 -62 q21 -35 21 -76q0 -69 -53 -109q-36 -27 -83 -27q-76 0 -116 61q-22 35 -22 75z" />
<glyph unicode="&#xc5;" horiz-adv-x="1365" d="M28 0l509 1460h291l509 -1460h-240l-152 424h-528l-144 -424h-245zM472 594h418l-206 659zM476 1665q0 95 71 152q56 44 135 44q110 0 169 -79q38 -52 38 -117q0 -92 -69 -150q-58 -48 -138 -48q-107 0 -166 78q-40 53 -40 120zM589 1664q0 -65 47 -91q21 -11 46 -11 q58 0 84 52q11 24 11 50q0 56 -43 85q-24 16 -52 16q-57 0 -82 -52q-11 -23 -11 -49z" />
<glyph unicode="&#xc6;" horiz-adv-x="1719" d="M13 0l628 1460h985l-10 -186h-603v-420h560v-187h-560v-476h630l-8 -191h-862v424h-338l-181 -424h-241zM502 594h271v668z" />
<glyph unicode="&#xc7;" horiz-adv-x="1288" d="M96 734q0 305 175 508q155 179 399 225q72 13 147 13q230 0 402 -108l-73 -180q-153 88 -315 88q-185 0 -315 -118q-163 -147 -166 -422v-11q0 -366 227 -491q107 -58 258 -58q145 0 297 71l22 11q10 4 14 6l51 -189q-158 -82 -321 -96q-41 -3 -83 -3q-304 0 -495 173 q-210 190 -223 536q-1 22 -1 45zM485 -406l109 399h126l-49 -399h-186z" />
<glyph unicode="&#xc8;" horiz-adv-x="1161" d="M148 0v1460h920l-10 -186h-670v-420h627v-187h-627v-476h697l-8 -191h-929zM237 2004h265l185 -402h-141z" />
<glyph unicode="&#xc9;" horiz-adv-x="1161" d="M148 0v1460h920l-10 -186h-670v-420h627v-187h-627v-476h697l-8 -191h-929zM547 1602l178 402h269l-309 -402h-138z" />
<glyph unicode="&#xca;" horiz-adv-x="1161" d="M148 0v1460h920l-10 -186h-670v-420h627v-187h-627v-476h697l-8 -191h-929zM295 1602l222 388h202l218 -388h-162l-164 239l-156 -239h-160z" />
<glyph unicode="&#xcb;" horiz-adv-x="1161" d="M148 0v1460h920l-10 -186h-670v-420h627v-187h-627v-476h697l-8 -191h-929zM257 1738q0 69 53 110q37 28 85 28q76 0 115 -62q21 -35 21 -76q0 -69 -53 -109q-36 -27 -83 -27q-76 0 -116 61q-22 34 -22 75zM702 1738q0 69 53 110q37 28 85 28q76 0 115 -62q21 -35 21 -76 q0 -69 -53 -109q-36 -27 -83 -27q-76 0 -116 61q-22 35 -22 75z" />
<glyph unicode="&#xcc;" horiz-adv-x="844" d="M43 2004h265l185 -402h-141zM98 0v150h206v1160h-206v150h648v-150h-202v-1160h202v-150h-648z" />
<glyph unicode="&#xcd;" horiz-adv-x="844" d="M98 0v150h206v1160h-206v150h648v-150h-202v-1160h202v-150h-648zM353 1602l178 402h269l-309 -402h-138z" />
<glyph unicode="&#xce;" horiz-adv-x="844" d="M98 0v150h206v1160h-206v150h648v-150h-202v-1160h202v-150h-648zM101 1602l222 388h202l218 -388h-162l-164 239l-156 -239h-160z" />
<glyph unicode="&#xcf;" horiz-adv-x="844" d="M62 1738q0 69 53 110q37 28 85 28q76 0 115 -62q21 -35 21 -76q0 -69 -53 -109q-36 -27 -83 -27q-76 0 -116 61q-22 34 -22 75zM98 0v150h206v1160h-206v150h648v-150h-202v-1160h202v-150h-648zM507 1738q0 69 53 110q37 28 85 28q76 0 115 -62q21 -35 21 -76 q0 -69 -53 -109q-36 -27 -83 -27q-76 0 -116 61q-22 35 -22 75z" />
<glyph unicode="&#xd0;" horiz-adv-x="1512" d="M36 661v156h638v-156h-638zM148 0v1460h427q402 0 617 -202q198 -189 198 -522q0 -354 -220 -549q-210 -187 -568 -187h-454zM388 180h218q322 0 453 219q79 133 79 332q0 488 -447 539q-54 6 -113 6h-190v-1096z" />
<glyph unicode="&#xd1;" horiz-adv-x="1526" d="M148 0v1460h262l751 -1150l-11 461v689h228v-1460h-272l-745 1129l15 -546v-583h-228zM442 1602q0 147 84 205q43 29 102 29q76 0 184 -50q74 -33 97 -33q38 0 54 53q4 14 7 29h115q0 -136 -71 -197q-41 -36 -100 -36q-60 0 -165 52q-83 41 -112 44q-5 1 -9 1 q-53 0 -72 -95v-2h-114z" />
<glyph unicode="&#xd2;" horiz-adv-x="1615" d="M96 724q0 333 181 537q172 193 461 216q36 3 72 3q300 0 490 -180t216 -489q3 -44 3 -88q0 -329 -180 -529q-174 -194 -472 -212q-28 -2 -57 -2q-313 0 -504 184t-208 501q-2 30 -2 59zM350 723q0 -258 133 -406q123 -137 326 -137q226 0 349 166q107 145 107 377 q0 265 -133 418q-122 139 -322 139q-215 0 -341 -159q-119 -152 -119 -398zM428 2004h265l185 -402h-141z" />
<glyph unicode="&#xd3;" horiz-adv-x="1615" d="M96 724q0 333 181 537q172 193 461 216q36 3 72 3q300 0 490 -180t216 -489q3 -44 3 -88q0 -329 -180 -529q-174 -194 -472 -212q-28 -2 -57 -2q-313 0 -504 184t-208 501q-2 30 -2 59zM350 723q0 -258 133 -406q123 -137 326 -137q226 0 349 166q107 145 107 377 q0 265 -133 418q-122 139 -322 139q-215 0 -341 -159q-119 -152 -119 -398zM739 1602l178 402h269l-309 -402h-138z" />
<glyph unicode="&#xd4;" horiz-adv-x="1615" d="M96 724q0 333 181 537q172 193 461 216q36 3 72 3q300 0 490 -180t216 -489q3 -44 3 -88q0 -329 -180 -529q-174 -194 -472 -212q-28 -2 -57 -2q-313 0 -504 184t-208 501q-2 30 -2 59zM350 723q0 -258 133 -406q123 -137 326 -137q226 0 349 166q107 145 107 377 q0 265 -133 418q-122 139 -322 139q-215 0 -341 -159q-119 -152 -119 -398zM487 1602l222 388h202l218 -388h-162l-164 239l-156 -239h-160z" />
<glyph unicode="&#xd5;" horiz-adv-x="1615" d="M96 724q0 333 181 537q172 193 461 216q36 3 72 3q300 0 490 -180t216 -489q3 -44 3 -88q0 -329 -180 -529q-174 -194 -472 -212q-28 -2 -57 -2q-313 0 -504 184t-208 501q-2 30 -2 59zM350 723q0 -258 133 -406q123 -137 326 -137q226 0 349 166q107 145 107 377 q0 265 -133 418q-122 139 -322 139q-215 0 -341 -159q-119 -152 -119 -398zM486 1602q0 147 84 205q43 29 102 29q76 0 184 -50q74 -33 97 -33q38 0 54 53q4 14 7 29h115q0 -136 -71 -197q-41 -36 -100 -36q-60 0 -165 52q-83 41 -112 44q-5 1 -9 1q-53 0 -72 -95v-2h-114z " />
<glyph unicode="&#xd6;" horiz-adv-x="1615" d="M96 724q0 333 181 537q172 193 461 216q36 3 72 3q300 0 490 -180t216 -489q3 -44 3 -88q0 -329 -180 -529q-174 -194 -472 -212q-28 -2 -57 -2q-313 0 -504 184t-208 501q-2 30 -2 59zM350 723q0 -258 133 -406q123 -137 326 -137q226 0 349 166q107 145 107 377 q0 265 -133 418q-122 139 -322 139q-215 0 -341 -159q-119 -152 -119 -398zM448 1738q0 69 53 110q37 28 85 28q76 0 115 -62q21 -35 21 -76q0 -69 -53 -109q-36 -27 -83 -27q-76 0 -116 61q-22 34 -22 75zM893 1738q0 69 53 110q37 28 85 28q76 0 115 -62q21 -35 21 -76 q0 -69 -53 -109q-36 -27 -83 -27q-76 0 -116 61q-22 35 -22 75z" />
<glyph unicode="&#xd7;" horiz-adv-x="1103" d="M154 291l277 289l-273 288l118 122l277 -286l274 284l121 -122l-274 -286l276 -287l-118 -125l-279 287l-281 -288z" />
<glyph unicode="&#xd8;" horiz-adv-x="1616" d="M96 724q0 333 181 537q172 193 461 216q36 3 72 3q300 0 490 -180t216 -489q3 -44 3 -88q0 -329 -180 -529q-174 -194 -472 -212q-28 -2 -57 -2q-313 0 -504 184t-208 501q-2 30 -2 59zM350 723q0 -258 133 -406q123 -137 326 -137q226 0 349 166q107 145 107 377 q0 265 -133 418q-122 139 -322 139q-215 0 -341 -159q-119 -152 -119 -398zM398 -197l727 1879l125 -47l-733 -1874z" />
<glyph unicode="&#xd9;" horiz-adv-x="1438" d="M122 528v932h240v-919q0 -252 183 -330q74 -31 172 -31q230 0 315 161q44 82 44 201v918h240v-934q0 -257 -165 -403q-160 -143 -434 -143q-313 0 -470 179q-125 142 -125 369zM339 2004h265l185 -402h-141z" />
<glyph unicode="&#xda;" horiz-adv-x="1438" d="M122 528v932h240v-919q0 -252 183 -330q74 -31 172 -31q230 0 315 161q44 82 44 201v918h240v-934q0 -257 -165 -403q-160 -143 -434 -143q-313 0 -470 179q-125 142 -125 369zM650 1602l178 402h269l-309 -402h-138z" />
<glyph unicode="&#xdb;" horiz-adv-x="1438" d="M122 528v932h240v-919q0 -252 183 -330q74 -31 172 -31q230 0 315 161q44 82 44 201v918h240v-934q0 -257 -165 -403q-160 -143 -434 -143q-313 0 -470 179q-125 142 -125 369zM398 1602l222 388h202l218 -388h-162l-164 239l-156 -239h-160z" />
<glyph unicode="&#xdc;" horiz-adv-x="1438" d="M122 528v932h240v-919q0 -252 183 -330q74 -31 172 -31q230 0 315 161q44 82 44 201v918h240v-934q0 -257 -165 -403q-160 -143 -434 -143q-313 0 -470 179q-125 142 -125 369zM360 1738q0 69 53 110q37 28 85 28q76 0 115 -62q21 -35 21 -76q0 -69 -53 -109 q-36 -27 -83 -27q-76 0 -116 61q-22 34 -22 75zM805 1738q0 69 53 110q37 28 85 28q76 0 115 -62q21 -35 21 -76q0 -69 -53 -109q-36 -27 -83 -27q-76 0 -116 61q-22 35 -22 75z" />
<glyph unicode="&#xdd;" horiz-adv-x="1260" d="M24 1460h256l354 -677l349 677h253l-481 -894v-566h-240v564zM561 1602l178 402h269l-309 -402h-138z" />
<glyph unicode="&#xde;" horiz-adv-x="1150" d="M148 0v1460h240v-298h196q334 0 443 -144q61 -81 61 -208q0 -223 -148 -314q-123 -74 -357 -74h-195v-422h-240zM388 597h188q169 0 221 57q38 43 38 151q0 118 -73 159q-56 30 -168 30h-206v-397z" />
<glyph unicode="&#xdf;" horiz-adv-x="1190" d="M158 0v1017q0 300 199 409q102 55 247 55q205 0 317 -104q92 -86 92 -220q0 -135 -95 -249q-13 -14 -37 -41q-49 -53 -57 -78q-2 -9 -2 -16q0 -35 68 -83q14 -10 46 -31q114 -74 162 -127q91 -100 91 -228q0 -182 -131 -267q-87 -57 -216 -57q-167 0 -335 72l55 161 q84 -44 194 -55q24 -2 46 -2q127 0 155 98q7 25 7 53q0 83 -99 164q-12 10 -114 83q-98 70 -127 125q-18 35 -18 71q0 75 66 155q10 12 31 37q66 74 86 120q18 43 18 90q0 94 -82 136q-47 24 -111 24q-153 0 -203 -110q-30 -67 -30 -186v-1016h-223z" />
<glyph unicode="&#xe0;" horiz-adv-x="1042" d="M88 292q0 199 155 271q108 50 302 50h161v69q0 187 -163 218q-29 5 -62 5q-121 0 -288 -67l-47 161q182 77 357 77q239 0 347 -148q75 -102 75 -266v-662h-162l-31 153q-120 -164 -299 -171h-14q-164 0 -255 98q-76 82 -76 212zM127 1600h265l185 -402h-141zM299 312 q0 -132 106 -159q25 -6 53 -6q116 0 213 90q19 18 34 36v202h-107q-193 0 -254 -49q-45 -37 -45 -114z" />
<glyph unicode="&#xe1;" horiz-adv-x="1042" d="M88 292q0 199 155 271q108 50 302 50h161v69q0 187 -163 218q-29 5 -62 5q-121 0 -288 -67l-47 161q182 77 357 77q239 0 347 -148q75 -102 75 -266v-662h-162l-31 153q-120 -164 -299 -171h-14q-164 0 -255 98q-76 82 -76 212zM299 312q0 -132 106 -159q25 -6 53 -6 q116 0 213 90q19 18 34 36v202h-107q-193 0 -254 -49q-45 -37 -45 -114zM437 1198l178 402h269l-309 -402h-138z" />
<glyph unicode="&#xe2;" horiz-adv-x="1042" d="M88 292q0 199 155 271q108 50 302 50h161v69q0 187 -163 218q-29 5 -62 5q-121 0 -288 -67l-47 161q182 77 357 77q239 0 347 -148q75 -102 75 -266v-662h-162l-31 153q-120 -164 -299 -171h-14q-164 0 -255 98q-76 82 -76 212zM185 1198l222 388h202l218 -388h-162 l-164 239l-156 -239h-160zM299 312q0 -132 106 -159q25 -6 53 -6q116 0 213 90q19 18 34 36v202h-107q-193 0 -254 -49q-45 -37 -45 -114z" />
<glyph unicode="&#xe3;" horiz-adv-x="1042" d="M88 292q0 199 155 271q108 50 302 50h161v69q0 187 -163 218q-29 5 -62 5q-121 0 -288 -67l-47 161q182 77 357 77q239 0 347 -148q75 -102 75 -266v-662h-162l-31 153q-120 -164 -299 -171h-14q-164 0 -255 98q-76 82 -76 212zM185 1198q0 147 84 205q43 29 102 29 q76 0 184 -50q74 -33 97 -33q38 0 54 53q4 14 7 29h115q0 -136 -71 -197q-41 -36 -100 -36q-60 0 -165 52q-83 41 -112 44q-5 1 -9 1q-53 0 -72 -95v-2h-114zM299 312q0 -132 106 -159q25 -6 53 -6q116 0 213 90q19 18 34 36v202h-107q-193 0 -254 -49q-45 -37 -45 -114z " />
<glyph unicode="&#xe4;" horiz-adv-x="1042" d="M88 292q0 199 155 271q108 50 302 50h161v69q0 187 -163 218q-29 5 -62 5q-121 0 -288 -67l-47 161q182 77 357 77q239 0 347 -148q75 -102 75 -266v-662h-162l-31 153q-120 -164 -299 -171h-14q-164 0 -255 98q-76 82 -76 212zM147 1334q0 69 53 110q37 28 85 28 q76 0 115 -62q21 -35 21 -76q0 -69 -53 -109q-36 -27 -83 -27q-76 0 -116 61q-22 34 -22 75zM299 312q0 -132 106 -159q25 -6 53 -6q116 0 213 90q19 18 34 36v202h-107q-193 0 -254 -49q-45 -37 -45 -114zM592 1334q0 69 53 110q37 28 85 28q76 0 115 -62q21 -35 21 -76 q0 -69 -53 -109q-36 -27 -83 -27q-76 0 -116 61q-22 35 -22 75z" />
<glyph unicode="&#xe5;" horiz-adv-x="1042" d="M88 292q0 199 155 271q108 50 302 50h161v69q0 187 -163 218q-29 5 -62 5q-121 0 -288 -67l-47 161q182 77 357 77q239 0 347 -148q75 -102 75 -266v-662h-162l-31 153q-120 -164 -299 -171h-14q-164 0 -255 98q-76 82 -76 212zM299 312q0 -132 106 -159q25 -6 53 -6 q116 0 213 90q19 18 34 36v202h-107q-193 0 -254 -49q-45 -37 -45 -114zM300 1396q0 95 71 152q56 44 135 44q110 0 169 -79q38 -52 38 -117q0 -92 -69 -150q-58 -48 -138 -48q-107 0 -166 78q-40 53 -40 120zM413 1395q0 -65 47 -91q21 -11 46 -11q58 0 84 52q11 24 11 50 q0 56 -43 85q-24 16 -52 16q-57 0 -82 -52q-11 -23 -11 -49z" />
<glyph unicode="&#xe6;" horiz-adv-x="1689" d="M88 313q0 185 168 252q119 48 349 48h130v85q-2 206 -250 207q-152 0 -299 -67l-49 160q166 79 371 79q180 0 291 -99q47 -43 73 -98q53 104 179 159q89 38 184 38q275 0 351 -178q25 -59 25 -133q0 -143 -126 -212q-157 -85 -535 -85q12 -285 271 -315q28 -3 57 -3 q141 0 271 67l34 -154q-126 -82 -309 -82q-201 0 -331 90q-47 32 -77 72q-88 -88 -247 -134q-102 -30 -201 -30q-162 0 -254 108q-76 90 -76 225zM295 305q0 -155 138 -164h16q114 0 239 67q54 30 93 64q-38 93 -42 193h-141q-215 0 -273 -67q-30 -35 -30 -93zM952 613 q338 0 432 64q51 36 51 98q0 120 -115 142q-31 6 -68 6q-236 0 -289 -238q-7 -34 -11 -72z" />
<glyph unicode="&#xe7;" horiz-adv-x="954" d="M74 531q0 255 151 405q136 136 349 140h11q188 0 300 -78l-55 -154q-95 60 -219 60q-147 0 -233 -110q-78 -101 -78 -265q2 -376 323 -377q108 0 223 66l33 -157q-111 -79 -296 -79q-235 0 -373 151q-136 148 -136 398zM307 -404l109 399h126l-49 -399h-186z" />
<glyph unicode="&#xe8;" horiz-adv-x="1049" d="M76 528q0 254 140 406q136 140 342 142q207 0 319 -161q94 -137 94 -348l-8 -105h-659q17 -251 227 -300q48 -11 102 -11q134 0 267 66q1 1 2 1l34 -154q-125 -82 -312 -82q-232 0 -381 132q-167 149 -167 414zM144 1600h265l185 -402h-141zM308 613h467 q-16 290 -213 291q-131 0 -200 -111q-46 -73 -54 -180z" />
<glyph unicode="&#xe9;" horiz-adv-x="1049" d="M76 528q0 254 140 406q136 140 342 142q207 0 319 -161q94 -137 94 -348l-8 -105h-659q17 -251 227 -300q48 -11 102 -11q134 0 267 66q1 1 2 1l34 -154q-125 -82 -312 -82q-232 0 -381 132q-167 149 -167 414zM308 613h467q-16 290 -213 291q-131 0 -200 -111 q-46 -73 -54 -180zM455 1198l178 402h269l-309 -402h-138z" />
<glyph unicode="&#xea;" horiz-adv-x="1049" d="M76 528q0 254 140 406q136 140 342 142q207 0 319 -161q94 -137 94 -348l-8 -105h-659q17 -251 227 -300q48 -11 102 -11q134 0 267 66q1 1 2 1l34 -154q-125 -82 -312 -82q-232 0 -381 132q-167 149 -167 414zM203 1198l222 388h202l218 -388h-162l-164 239l-156 -239 h-160zM308 613h467q-16 290 -213 291q-131 0 -200 -111q-46 -73 -54 -180z" />
<glyph unicode="&#xeb;" horiz-adv-x="1049" d="M76 528q0 254 140 406q136 140 342 142q207 0 319 -161q94 -137 94 -348l-8 -105h-659q17 -251 227 -300q48 -11 102 -11q134 0 267 66q1 1 2 1l34 -154q-125 -82 -312 -82q-232 0 -381 132q-167 149 -167 414zM164 1334q0 69 53 110q37 28 85 28q76 0 115 -62 q21 -35 21 -76q0 -69 -53 -109q-36 -27 -83 -27q-76 0 -116 61q-22 34 -22 75zM308 613h467q-16 290 -213 291q-131 0 -200 -111q-46 -73 -54 -180zM609 1334q0 69 53 110q37 28 85 28q76 0 115 -62q21 -35 21 -76q0 -69 -53 -109q-36 -27 -83 -27q-76 0 -116 61 q-22 35 -22 75z" />
<glyph unicode="&#xec;" horiz-adv-x="490" d="M-119 1609h265l185 -402h-141zM151 0v1085h219v-1085h-219z" />
<glyph unicode="&#xed;" horiz-adv-x="490" d="M151 0v1085h219v-1085h-219zM191 1207l178 402h269l-309 -402h-138z" />
<glyph unicode="&#xee;" horiz-adv-x="490" d="M-61 1207l222 388h202l218 -388h-162l-164 239l-156 -239h-160zM151 0v1085h219v-1085h-219z" />
<glyph unicode="&#xef;" horiz-adv-x="490" d="M-99 1343q0 69 53 110q37 28 85 28q76 0 115 -62q21 -35 21 -76q0 -69 -53 -109q-36 -27 -83 -27q-76 0 -116 61q-22 34 -22 75zM151 0v1085h219v-1085h-219zM346 1343q0 69 53 110q37 28 85 28q76 0 115 -62q21 -35 21 -76q0 -69 -53 -109q-36 -27 -83 -27 q-76 0 -116 61q-22 35 -22 75z" />
<glyph unicode="&#xf0;" horiz-adv-x="1169" d="M83 449v22q0 211 135 341q134 129 348 129q94 0 198 -58q-71 109 -216 257l-32 32l-248 -97l-58 150l194 77l-208 200h259l128 -126l275 109l60 -151l-224 -87q198 -217 277 -334q25 -37 45 -73q93 -166 95 -373q0 -237 -150 -369q-137 -120 -362 -120q-233 0 -377 142 q-131 129 -139 329zM296 472q0 -150 93 -240q84 -80 216 -80q183 0 260 133q45 78 45 188q0 146 -95 233q-85 76 -216 76q-172 0 -252 -121q-51 -78 -51 -189z" />
<glyph unicode="&#xf1;" horiz-adv-x="1160" d="M126 0v1058h185l24 -200q78 175 246 209q45 9 95 9q201 0 298 -149q72 -110 72 -281v-646h-224v628q0 211 -112 260q-39 16 -90 16q-143 0 -217 -138q-53 -100 -53 -237v-529h-224zM264 1198q0 147 84 205q43 29 102 29q76 0 184 -50q74 -33 97 -33q38 0 54 53q4 14 7 29 h115q0 -136 -71 -197q-41 -36 -100 -36q-60 0 -165 52q-83 41 -112 44q-5 1 -9 1q-53 0 -72 -95v-2h-114z" />
<glyph unicode="&#xf2;" horiz-adv-x="1173" d="M76 519v11q0 269 154 416q136 130 357 130q237 0 375 -153q135 -148 135 -393q0 -253 -144 -403q-139 -145 -366 -145q-226 0 -366 146q-141 147 -145 391zM207 1600h265l185 -402h-141zM302 530q0 -237 125 -329q67 -49 160 -49q180 0 249 167q35 88 35 211 q0 256 -143 339q-60 35 -141 35q-171 0 -243 -152q-42 -91 -42 -222z" />
<glyph unicode="&#xf3;" horiz-adv-x="1173" d="M76 519v11q0 269 154 416q136 130 357 130q237 0 375 -153q135 -148 135 -393q0 -253 -144 -403q-139 -145 -366 -145q-226 0 -366 146q-141 147 -145 391zM302 530q0 -237 125 -329q67 -49 160 -49q180 0 249 167q35 88 35 211q0 256 -143 339q-60 35 -141 35 q-171 0 -243 -152q-42 -91 -42 -222zM517 1198l178 402h269l-309 -402h-138z" />
<glyph unicode="&#xf4;" horiz-adv-x="1173" d="M76 519v11q0 269 154 416q136 130 357 130q237 0 375 -153q135 -148 135 -393q0 -253 -144 -403q-139 -145 -366 -145q-226 0 -366 146q-141 147 -145 391zM265 1198l222 388h202l218 -388h-162l-164 239l-156 -239h-160zM302 530q0 -237 125 -329q67 -49 160 -49 q180 0 249 167q35 88 35 211q0 256 -143 339q-60 35 -141 35q-171 0 -243 -152q-42 -91 -42 -222z" />
<glyph unicode="&#xf5;" horiz-adv-x="1173" d="M76 519v11q0 269 154 416q136 130 357 130q237 0 375 -153q135 -148 135 -393q0 -253 -144 -403q-139 -145 -366 -145q-226 0 -366 146q-141 147 -145 391zM265 1198q0 147 84 205q43 29 102 29q76 0 184 -50q74 -33 97 -33q38 0 54 53q4 14 7 29h115q0 -136 -71 -197 q-41 -36 -100 -36q-60 0 -165 52q-83 41 -112 44q-5 1 -9 1q-53 0 -72 -95v-2h-114zM302 530q0 -237 125 -329q67 -49 160 -49q180 0 249 167q35 88 35 211q0 256 -143 339q-60 35 -141 35q-171 0 -243 -152q-42 -91 -42 -222z" />
<glyph unicode="&#xf6;" horiz-adv-x="1173" d="M76 519v11q0 269 154 416q136 130 357 130q237 0 375 -153q135 -148 135 -393q0 -253 -144 -403q-139 -145 -366 -145q-226 0 -366 146q-141 147 -145 391zM227 1334q0 69 53 110q37 28 85 28q76 0 115 -62q21 -35 21 -76q0 -69 -53 -109q-36 -27 -83 -27q-76 0 -116 61 q-22 34 -22 75zM302 530q0 -237 125 -329q67 -49 160 -49q180 0 249 167q35 88 35 211q0 256 -143 339q-60 35 -141 35q-171 0 -243 -152q-42 -91 -42 -222zM672 1334q0 69 53 110q37 28 85 28q76 0 115 -62q21 -35 21 -76q0 -69 -53 -109q-36 -27 -83 -27q-76 0 -116 61 q-22 35 -22 75z" />
<glyph unicode="&#xf7;" horiz-adv-x="1241" d="M108 488v173h1020v-173h-1020zM497 25v248h243v-248h-243zM497 869v239h249v-239h-249z" />
<glyph unicode="&#xf8;" horiz-adv-x="1197" d="M76 519v11q0 269 154 416q136 130 357 130q237 0 375 -153q135 -148 135 -393q0 -253 -144 -403q-139 -145 -366 -145q-226 0 -366 146q-141 147 -145 391zM204 -127l728 1345l77 -44l-734 -1345zM302 530q0 -237 125 -329q67 -49 160 -49q180 0 249 167q35 88 35 211 q0 256 -143 339q-60 35 -141 35q-171 0 -243 -152q-42 -91 -42 -222z" />
<glyph unicode="&#xf9;" horiz-adv-x="1147" d="M109 400v658h224v-649q0 -192 109 -239q42 -18 100 -18q177 0 230 144q27 74 27 195v567h224v-1058h-179l-22 165q-89 -175 -312 -183h-22q-276 0 -352 229q-27 82 -27 189zM187 1600h265l185 -402h-141z" />
<glyph unicode="&#xfa;" horiz-adv-x="1147" d="M109 400v658h224v-649q0 -192 109 -239q42 -18 100 -18q177 0 230 144q27 74 27 195v567h224v-1058h-179l-22 165q-89 -175 -312 -183h-22q-276 0 -352 229q-27 82 -27 189zM497 1198l178 402h269l-309 -402h-138z" />
<glyph unicode="&#xfb;" horiz-adv-x="1147" d="M109 400v658h224v-649q0 -192 109 -239q42 -18 100 -18q177 0 230 144q27 74 27 195v567h224v-1058h-179l-22 165q-89 -175 -312 -183h-22q-276 0 -352 229q-27 82 -27 189zM245 1198l222 388h202l218 -388h-162l-164 239l-156 -239h-160z" />
<glyph unicode="&#xfc;" horiz-adv-x="1147" d="M109 400v658h224v-649q0 -192 109 -239q42 -18 100 -18q177 0 230 144q27 74 27 195v567h224v-1058h-179l-22 165q-89 -175 -312 -183h-22q-276 0 -352 229q-27 82 -27 189zM206 1334q0 69 53 110q37 28 85 28q76 0 115 -62q21 -35 21 -76q0 -69 -53 -109 q-36 -27 -83 -27q-76 0 -116 61q-22 34 -22 75zM651 1334q0 69 53 110q37 28 85 28q76 0 115 -62q21 -35 21 -76q0 -69 -53 -109q-36 -27 -83 -27q-76 0 -116 61q-22 35 -22 75z" />
<glyph unicode="&#xfd;" horiz-adv-x="1047" d="M33 1058h225l292 -755l255 755h231l-555 -1502l-202 32l172 450zM465 1198l178 402h269l-309 -402h-138z" />
<glyph unicode="&#xfe;" horiz-adv-x="1163" d="M122 -441v1499h185l23 -188q95 205 333 206q206 0 322 -164q105 -148 105 -382q0 -249 -126 -400q-124 -148 -326 -148q-166 0 -268 129q-16 20 -29 42l5 -190v-404h-224zM122 763v697l225 20v-717h-225zM343 548q1 -395 262 -396q175 0 233 183q26 83 26 197 q0 339 -212 369q-20 3 -41 3q-266 0 -268 -354v-2z" />
<glyph unicode="&#xff;" horiz-adv-x="1047" d="M33 1058h225l292 -755l255 755h231l-555 -1502l-202 32l172 450zM175 1334q0 69 53 110q37 28 85 28q76 0 115 -62q21 -35 21 -76q0 -69 -53 -109q-36 -27 -83 -27q-76 0 -116 61q-22 34 -22 75zM620 1334q0 69 53 110q37 28 85 28q76 0 115 -62q21 -35 21 -76 q0 -69 -53 -109q-36 -27 -83 -27q-76 0 -116 61q-22 35 -22 75z" />
<glyph unicode="&#x152;" horiz-adv-x="2111" d="M96 736q0 392 270 580q209 144 545 144h315v-1460h-342q-361 0 -570 189q-218 196 -218 547zM348 731q0 -329 207 -466q129 -85 325 -85h218v1096h-190q-500 0 -554 -433q-6 -53 -6 -112zM1098 0v1460h920l-10 -186h-670v-420h627v-187h-627v-476h697l-8 -191h-929z" />
<glyph unicode="&#x153;" horiz-adv-x="1844" d="M76 519v11q0 269 154 416q136 130 357 130q237 0 375 -153q135 -148 135 -393q0 -253 -144 -403q-139 -145 -366 -145q-226 0 -366 146q-141 147 -145 391zM302 530q0 -237 125 -329q67 -49 160 -49q180 0 249 167q35 88 35 211q0 256 -143 339q-60 35 -141 35 q-171 0 -243 -152q-42 -91 -42 -222zM871 528q0 254 140 406q136 140 342 142q207 0 319 -161q94 -137 94 -348l-8 -105h-659q17 -251 227 -300q48 -11 102 -11q134 0 267 66q1 1 2 1l34 -154q-125 -82 -312 -82q-232 0 -381 132q-167 149 -167 414zM1103 613h467 q-16 290 -213 291q-131 0 -200 -111q-46 -73 -54 -180z" />
<glyph unicode="&#x178;" horiz-adv-x="1260" d="M24 1460h256l354 -677l349 677h253l-481 -894v-566h-240v564zM270 1738q0 69 53 110q37 28 85 28q76 0 115 -62q21 -35 21 -76q0 -69 -53 -109q-36 -27 -83 -27q-76 0 -116 61q-22 34 -22 75zM715 1738q0 69 53 110q37 28 85 28q76 0 115 -62q21 -35 21 -76 q0 -69 -53 -109q-36 -27 -83 -27q-76 0 -116 61q-22 35 -22 75z" />
<glyph unicode="&#x2c6;" horiz-adv-x="735" d="M41 1072l222 388h202l218 -388h-162l-164 239l-156 -239h-160z" />
<glyph unicode="&#x2dc;" horiz-adv-x="784" d="M78 1227q0 147 84 205q43 29 102 29q76 0 184 -50q74 -33 97 -33q38 0 54 53q4 14 7 29h115q0 -136 -71 -197q-41 -36 -100 -36q-60 0 -165 52q-83 41 -112 44q-5 1 -9 1q-53 0 -72 -95v-2h-114z" />
<glyph unicode="&#x2000;" horiz-adv-x="1002" />
<glyph unicode="&#x2001;" horiz-adv-x="2004" />
<glyph unicode="&#x2002;" horiz-adv-x="1002" />
<glyph unicode="&#x2003;" horiz-adv-x="2004" />
<glyph unicode="&#x2004;" horiz-adv-x="668" />
<glyph unicode="&#x2005;" horiz-adv-x="501" />
<glyph unicode="&#x2006;" horiz-adv-x="334" />
<glyph unicode="&#x2007;" horiz-adv-x="334" />
<glyph unicode="&#x2008;" horiz-adv-x="250" />
<glyph unicode="&#x2009;" horiz-adv-x="400" />
<glyph unicode="&#x200a;" horiz-adv-x="111" />
<glyph unicode="&#x2010;" horiz-adv-x="813" d="M116 467v181h581v-181h-581z" />
<glyph unicode="&#x2011;" horiz-adv-x="813" d="M116 467v181h581v-181h-581z" />
<glyph unicode="&#x2012;" horiz-adv-x="813" d="M116 467v181h581v-181h-581z" />
<glyph unicode="&#x2013;" horiz-adv-x="1189" d="M96 484v171h1045v-171h-1045z" />
<glyph unicode="&#x2014;" horiz-adv-x="2133" d="M69 484v171h2066v-171h-2066z" />
<glyph unicode="&#x2018;" horiz-adv-x="426" d="M85 1460h206l73 -500h-154z" />
<glyph unicode="&#x2019;" horiz-adv-x="422" d="M74 960l99 500h221l-174 -500h-146z" />
<glyph unicode="&#x201a;" horiz-adv-x="475" d="M101 -250l99 478h194l-146 -478h-147z" />
<glyph unicode="&#x201c;" horiz-adv-x="728" d="M91 1460h157l149 -504h-217zM414 1460h152l162 -505h-220z" />
<glyph unicode="&#x201d;" horiz-adv-x="788" d="M89 904l91 556h217l-151 -556h-157zM411 904l95 556h221l-164 -556h-152z" />
<glyph unicode="&#x201e;" horiz-adv-x="822" d="M137 -250l99 478h196l-147 -478h-148zM441 -250l101 478h197l-148 -478h-150z" />
<glyph unicode="&#x2022;" horiz-adv-x="870" d="M122 709q0 151 106 248q97 87 233 87q145 0 240 -95q93 -94 93 -235q0 -151 -106 -248q-97 -87 -233 -87q-146 0 -241 95q-92 94 -92 235z" />
<glyph unicode="&#x2026;" horiz-adv-x="1476" d="M116 119q0 69 52 107q34 24 81 24q84 0 117 -69q14 -29 14 -62q0 -71 -52 -108q-33 -23 -79 -23q-83 0 -118 67q-15 30 -15 64zM608 119q0 70 52 107q34 24 80 24q84 0 118 -68q14 -30 14 -63q0 -70 -52 -107q-34 -24 -80 -24q-82 0 -117 67q-15 30 -15 64zM1098 119 q0 70 52 107q34 24 80 24q83 0 118 -67q15 -30 15 -64q0 -69 -52 -107q-34 -24 -81 -24q-82 0 -117 67q-15 30 -15 64z" />
<glyph unicode="&#x202f;" horiz-adv-x="400" />
<glyph unicode="&#x2039;" horiz-adv-x="559" d="M67 565l283 413h181l-273 -413l267 -405h-181z" />
<glyph unicode="&#x203a;" horiz-adv-x="563" d="M72 160l272 410l-266 408h181l280 -409l-286 -409h-181z" />
<glyph unicode="&#x205f;" horiz-adv-x="501" />
<glyph unicode="&#x20ac;" horiz-adv-x="1288" d="M-15 515l3 130h172v147h-172l3 129h877l-4 -129h-571v-147h571l-3 -130h-876zM96 734q0 305 175 508q155 179 399 225q72 13 147 13q230 0 402 -108l-73 -180q-153 88 -315 88q-185 0 -315 -118q-163 -147 -166 -422v-11q0 -366 227 -491q107 -58 258 -58q145 0 297 71 l22 11q10 4 14 6l51 -189q-158 -82 -321 -96q-41 -3 -83 -3q-304 0 -495 173q-210 190 -223 536q-1 22 -1 45z" />
<glyph unicode="&#x2122;" horiz-adv-x="1709" d="M72 1324v134h638v-134h-247v-705h-143v705h-248zM793 619v839h187l233 -591l245 591h175v-839h-141v606l-236 -563h-99l-223 559v-602h-141z" />
<glyph unicode="&#x25fc;" horiz-adv-x="1060" d="M0 0v1060h1060v-1060h-1060z" />
<glyph unicode="&#xfb03;" horiz-adv-x="2043" d="M30 912l5 127l164 17v47q0 269 165 338q67 28 165 28q93 0 181 -18l-20 -160q-66 12 -121 12q-81 0 -111 -35q-35 -42 -35 -148v-62h248v-146h-248v-912h-224v912h-169zM795 912l5 127l164 17v47q0 269 165 338q67 28 165 28q93 0 181 -18l-20 -160q-66 12 -121 12 q-81 0 -111 -35q-35 -42 -35 -148v-62h248v-146h-248v-912h-224v912h-169zM1656 1340q0 87 82 112q26 8 56 8q100 0 128 -70q9 -23 9 -50q0 -88 -82 -113q-25 -7 -55 -7q-99 0 -128 68q-10 24 -10 52zM1688 0v1058h220v-1058h-220z" />
<glyph unicode="&#xfb04;" horiz-adv-x="2138" d="M30 912l5 127l164 17v47q0 269 165 338q67 28 165 28q93 0 181 -18l-20 -160q-66 12 -121 12q-81 0 -111 -35q-35 -42 -35 -148v-62h248v-146h-248v-912h-224v912h-169zM795 912l5 127l164 17v47q0 269 165 338q67 28 165 28q93 0 181 -18l-20 -160q-66 12 -121 12 q-81 0 -111 -35q-35 -42 -35 -148v-62h248v-146h-248v-912h-224v912h-169zM1668 327v1133l222 20v-1171q0 -89 54 -118q34 -18 101 -24l95 -8l-13 -165h-72q-203 0 -287 61q-99 77 -100 272z" />
</font>
</defs>
</svg>
