<?xml version="1.0" standalone="no"?>
<!DOCTYPE svg PUBLIC "-//W3C//DTD SVG 1.1//EN" "http://www.w3.org/Graphics/SVG/1.1/DTD/svg11.dtd" >
<svg xmlns="http://www.w3.org/2000/svg">
<metadata></metadata>
<defs>
<font id="oxygen-sanssans-book" horiz-adv-x="1204" >
<font-face units-per-em="2048" ascent="1638" descent="-410" />
<missing-glyph horiz-adv-x="466" />
<glyph horiz-adv-x="0" />
<glyph unicode="&#xd;" horiz-adv-x="682" />
<glyph unicode=" "  horiz-adv-x="466" />
<glyph unicode="&#x09;" horiz-adv-x="466" />
<glyph unicode="&#xa0;" horiz-adv-x="466" />
<glyph unicode="!" horiz-adv-x="564" d="M167 102q0 66 50 97q28 17 65 17q78 0 106 -65q9 -24 9 -49q0 -69 -51 -99q-28 -16 -64 -16q-78 0 -106 66q-9 24 -9 49zM190 1341v119h176v-119l-52 -923h-66z" />
<glyph unicode="&#x22;" horiz-adv-x="641" d="M109 1460h168l-43 -507h-75zM380 1460h168l-49 -507h-76z" />
<glyph unicode="#" d="M85 431l13 91h187l93 445h-197l13 91h203l82 402h126l-82 -402h283l83 402h124l-82 -402h188l-15 -91h-191l-93 -445h203l-15 -91h-208l-93 -451h-125l92 451h-282l-94 -451h-124l93 451h-182zM410 522h284l93 445h-283z" />
<glyph unicode="$" horiz-adv-x="1167" d="M138 1100q0 214 177 314q119 66 287 66q200 0 370 -87q24 -12 45 -25l-64 -124q-110 76 -277 93q-35 4 -68 4q-179 0 -259 -87q-49 -54 -49 -133q0 -106 58 -160q41 -38 128 -72l230 -90q166 -65 235 -124q113 -94 117 -268v-14q0 -260 -213 -360q-113 -53 -267 -53 q-188 0 -343 68q-65 29 -103 63v158q150 -109 342 -140q56 -9 107 -9q187 0 267 106q49 65 49 161q0 107 -52 161q-49 50 -185 103l-238 91q-175 66 -240 162q-54 79 -54 196zM534 1404l38 331h66l53 -331h-157zM535 53h157l-38 -331h-66z" />
<glyph unicode="%" horiz-adv-x="1789" d="M62 1088q0 186 108 288q90 83 231 83q196 0 285 -146q55 -93 55 -225q0 -185 -107 -287q-90 -86 -233 -86q-189 0 -279 141q-60 96 -60 232zM178 1089q0 -188 110 -252q49 -28 114 -28q148 0 200 138q23 62 23 142q0 195 -118 254q-46 23 -105 23q-149 0 -201 -137 q-23 -61 -23 -140zM417 0l830 1460h122l-820 -1460h-132zM1048 372q0 186 108 288q90 84 231 84q196 0 284 -146q56 -93 56 -226q0 -185 -107 -287q-90 -86 -233 -86q-189 0 -279 141q-60 96 -60 232zM1164 373q0 -187 108 -252q50 -29 116 -29q147 0 199 137q24 62 24 144 q0 195 -118 254q-46 23 -105 23q-149 0 -201 -137q-23 -61 -23 -140z" />
<glyph unicode="&#x26;" horiz-adv-x="1401" d="M155 352q0 215 168 351q53 43 131 86l-27 30q-145 165 -147 327q0 147 116 234q106 79 265 79q198 0 288 -113q57 -74 57 -182q0 -160 -140 -272q-60 -48 -204 -125l401 -435q92 101 168 236l114 -75q-90 -155 -190 -260l159 -173l-116 -96l-153 170q-201 -154 -422 -154 q-186 0 -322 104q-121 93 -142 221q-4 24 -4 47zM315 368q0 -110 93 -184q90 -72 221 -72q166 1 326 121l-418 464q-144 -88 -192 -188q-30 -64 -30 -141zM427 1157q0 -122 105 -248q13 -15 27 -30l22 -24q144 74 200 130q76 76 76 174q0 160 -154 179q-20 2 -40 2 q-117 0 -186 -66q-50 -49 -50 -117z" />
<glyph unicode="'" horiz-adv-x="341" d="M96 1460h165l-38 -507h-91z" />
<glyph unicode="(" horiz-adv-x="702" d="M194 687q0 425 204 774q26 44 54 85h157q-253 -389 -253 -855q1 -525 252 -920h-154q-175 244 -235 607q-25 153 -25 309z" />
<glyph unicode=")" horiz-adv-x="706" d="M113 1546h157q258 -380 258 -853q0 -362 -124 -671q-58 -145 -135 -251h-155q200 303 242 725q10 99 10 199q0 326 -121 603q-53 122 -132 248z" />
<glyph unicode="*" horiz-adv-x="1203" d="M157 1050l44 155l352 -149l-35 404h167l-37 -404l354 149l44 -155l-362 -82q153 -207 249 -329q-30 -19 -68 -43q-39 -24 -68 -43l-201 358l-188 -358l-136 86l242 329z" />
<glyph unicode="+" horiz-adv-x="1203" d="M160 621v123h379v389h131v-389h373v-123h-373v-394h-132v394h-378z" />
<glyph unicode="," horiz-adv-x="481" d="M137 -290l37 428q4 62 4 83h173v-40q0 -13 -29.5 -130.5t-58.5 -228.5l-29 -112h-97z" />
<glyph unicode="-" horiz-adv-x="1205" d="M268 579v135h669v-135h-669z" />
<glyph unicode="." horiz-adv-x="488" d="M147 98q0 63 48 93q26 16 61 16q73 0 98 -63q9 -22 9 -46q0 -65 -48 -94q-26 -15 -59 -15q-73 0 -99 61q-10 23 -10 48z" />
<glyph unicode="/" horiz-adv-x="963" d="M103 0l609 1460h148l-613 -1460h-144z" />
<glyph unicode="0" d="M114 726q0 408 166 605q125 149 327 149q273 0 396 -266q87 -189 87 -488q0 -436 -176 -627q-119 -128 -307 -128q-273 0 -400 261q-93 193 -93 494zM279 731q0 -417 158 -560q72 -65 170 -65q197 0 274 256q44 148 44 370q-8 605 -318 613q-165 0 -252 -183 q-76 -161 -76 -431z" />
<glyph unicode="1" d="M237 0v120h352v1188q-104 -58 -263 -93q-33 -8 -58 -11v132q127 26 252 80q52 23 82 44h153v-1340h314v-120h-832z" />
<glyph unicode="2" d="M192 131l471 556q100 118 132 174q56 96 56 210q0 197 -160 251q-53 18 -114 18q-148 0 -292 -78q-20 -11 -38 -23l-49 127q101 74 267 103q67 11 130 11q175 0 288 -91q130 -105 130 -302q0 -154 -67 -274q-47 -84 -175 -234l-392 -459h629l-9 -120h-781z" />
<glyph unicode="3" d="M177 1370q181 107 379 109q197 0 316 -104q111 -99 113 -262v-6q-1 -264 -266 -333q177 -37 256 -171q49 -84 49 -195v-7q-3 -227 -160 -340q-114 -82 -281 -82q-185 1 -370 97v150q206 -105 365 -105q176 0 240 129q32 63 32 151q0 203 -151 267q-85 35 -241 35h-42v134 h43q353 2 354 258v7q-3 170 -146 221q-51 18 -116 18q-154 0 -312 -89q-5 -2 -8 -4z" />
<glyph unicode="4" d="M115 368v144l653 948h169v-964h179l-12 -128h-167v-368h-158v368h-664zM280 496h499v758z" />
<glyph unicode="5" d="M162 100l57 129q193 -109 361 -109q177 0 265 119q64 88 64 222q0 176 -106 259q-74 58 -189 58q-124 0 -220 -72q-23 -17 -40 -35l-134 16l28 773h768l-13 -132h-614l-16 -498q118 79 267 79q213 0 334 -142q104 -123 104 -303q0 -251 -163 -382q-129 -103 -324 -103 q-213 1 -429 121z" />
<glyph unicode="6" d="M157 420v17q0 171 89 335q39 73 130 204l329 484h189l-340 -500q-45 -66 -105 -147q97 56 207 56q165 0 288 -104q129 -110 147 -282q3 -25 3 -49q0 -184 -116 -310q-124 -135 -328 -143q-13 -1 -25 -1q-219 0 -350 143q-112 121 -118 297zM316 427q0 -147 90 -236 q83 -80 215 -80q162 0 249 118q63 86 63 204q0 156 -102 240q-81 67 -204 67q-122 0 -208 -71q-103 -85 -103 -242z" />
<glyph unicode="7" d="M190 1460h848v-118l-512 -1342h-166l504 1326h-655z" />
<glyph unicode="8" d="M130 364q0 248 224 364q38 20 82 35q-151 50 -225 171q-50 83 -50 183q0 177 138 277q120 86 304 86q213 0 334 -113q104 -98 104 -250q0 -198 -173 -305q-44 -28 -97 -47q161 -52 243 -187q59 -98 59 -214q0 -194 -155 -298q-127 -86 -316 -86q-212 0 -343 105 q-128 105 -129 279zM285 379q0 -178 149 -241q71 -30 168 -30q313 2 314 272q0 155 -139 248q-74 50 -175 72q-193 -42 -273 -165q-44 -70 -44 -156zM321 1121q0 -194 186 -274q44 -19 95 -30q241 53 274 244q5 29 5 60q0 124 -100 189q-73 47 -179 47q-151 0 -228 -89 q-53 -61 -53 -147z" />
<glyph unicode="9" d="M150 1025q0 184 116 310q124 135 326 144q15 1 28 1q219 0 350 -143q112 -122 118 -297v-18q0 -168 -96 -334q-40 -69 -136 -200l-357 -488h-196l379 508q26 35 102 132q-94 -50 -196 -50q-166 0 -289 105q-130 110 -147 283q-2 24 -2 47zM312 1027q0 -157 102 -242 q80 -66 203 -66q122 0 209 71q104 85 104 243q0 147 -90 236q-83 80 -215 80q-161 0 -249 -117q-64 -86 -64 -205z" />
<glyph unicode=":" horiz-adv-x="537" d="M146 101q0 63 51 94q31 18 72 18q83 0 112 -64q10 -23 10 -48q0 -62 -50 -93q-31 -19 -72 -19q-81 0 -111 62q-12 24 -12 50zM146 946q0 61 50 93q31 19 73 19q82 0 111 -63q11 -23 11 -49q0 -64 -51 -95q-31 -18 -71 -18q-81 0 -111 63q-12 24 -12 50z" />
<glyph unicode=";" horiz-adv-x="526" d="M146 946q0 61 50 93q31 19 73 19q82 0 111 -63q11 -23 11 -49q0 -64 -51 -95q-31 -18 -71 -18q-81 0 -111 63q-12 24 -12 50zM152 -300l34 488h182l-121 -488h-95z" />
<glyph unicode="&#x3c;" d="M110 580v87l930 477v-140l-745 -376l743 -352l-1 -141z" />
<glyph unicode="=" horiz-adv-x="1205" d="M184 429v124h837v-124h-837zM184 783v124h837v-124h-837z" />
<glyph unicode="&#x3e;" d="M161 141v141l737 346l-735 382v140l928 -484v-88z" />
<glyph unicode="?" horiz-adv-x="1203" d="M261 1387q137 93 316 93q191 0 288 -110q77 -86 77 -227q0 -132 -81 -258q-15 -23 -105 -143q-111 -150 -158 -284q-8 -22 -15 -45h-90q5 146 105 329q17 31 52 91q83 141 105 208q16 52 16 97q0 185 -166 208q-23 3 -47 3q-125 0 -261 -85zM420 98q0 66 52 95 q27 15 63 15q80 0 106 -64q8 -22 8 -46q0 -70 -55 -98q-26 -13 -59 -13q-79 0 -106 64q-9 23 -9 47z" />
<glyph unicode="@" horiz-adv-x="1880" d="M128 638q0 303 173 527q162 209 424 285q126 36 263 36q289 0 492 -153q200 -151 250 -405q15 -75 15 -156q0 -250 -130 -397q-93 -106 -214 -118q-13 -1 -25 -1q-165 0 -224 164q-8 22 -13 45q-67 -146 -182 -193q-48 -20 -100 -20q-152 0 -234 121q-62 92 -62 224 q0 182 96 319q110 156 296 173q21 2 42 2q129 0 260 -48q29 -11 53 -23q-8 -60 -26 -173q-39 -247 -39 -333q0 -77 59 -117q33 -23 74 -23q89 0 156 89q86 116 86 317q0 257 -154 415q-171 175 -483 175q-289 0 -481 -176q-176 -161 -217 -419q-11 -69 -11 -141 q0 -304 170 -482q175 -183 482 -183q284 1 467 114l42 -100q-155 -104 -397 -128q-58 -6 -115 -6q-324 0 -536 178q-210 177 -249 482q-8 63 -8 129zM705 594q0 -147 81 -204q38 -26 88 -26q124 0 182 148q28 73 50 205q1 6 15 88q20 120 28 166q-81 18 -138 18 q-133 0 -221 -121q-82 -122 -85 -274z" />
<glyph unicode="A" horiz-adv-x="1360" d="M52 0l535 1460h187l534 -1460h-174l-172 470h-559l-171 -470h-180zM444 592h478l-240 696z" />
<glyph unicode="B" horiz-adv-x="1332" d="M164 0v1460h458q398 0 500 -187q38 -72 38 -171q0 -172 -108 -261q-50 -41 -124 -69q237 -68 281 -270q9 -43 9 -90q0 -239 -189 -343q-125 -69 -321 -69h-544zM340 134h340q245 0 321 115q41 64 41 167q0 178 -135 243q-98 46 -281 46h-286v-571zM340 830h338 q201 0 270 91q44 60 44 160q0 148 -102 203q-84 44 -269 44h-281v-498z" />
<glyph unicode="C" horiz-adv-x="1292" d="M120 735q0 305 160 506q155 194 414 231q55 8 112 8q228 0 382 -98q11 -7 21 -14l-58 -115q-125 78 -295 87q-18 1 -35 1q-242 0 -384 -170q-140 -168 -140 -442q0 -277 146 -443q146 -165 391 -165q161 0 325 77l41 -131q-162 -82 -369 -86h-16q-276 0 -462 167 q-188 169 -225 457q-8 64 -8 130z" />
<glyph unicode="D" horiz-adv-x="1480" d="M164 0v1460h414q405 0 609 -218q173 -186 173 -508q0 -370 -224 -564q-198 -170 -529 -170h-443zM340 134h257q439 0 551 340q36 111 36 255q0 512 -445 586q-78 13 -169 13h-230v-1194z" />
<glyph unicode="E" horiz-adv-x="1133" d="M164 0v1460h882l-6 -132h-700v-507h638v-132h-638v-555h721l-12 -134h-885z" />
<glyph unicode="F" horiz-adv-x="1062" d="M164 0v1460h825l-10 -135h-636v-528h592v-128h-592v-669h-179z" />
<glyph unicode="G" horiz-adv-x="1449" d="M120 728q0 291 155 492q154 199 411 247q72 13 149 13q268 -1 430 -113l-43 -132q-89 49 -128 64q-112 43 -256 43q-243 0 -391 -168q-138 -157 -149 -407q-1 -19 -1 -38q0 -403 248 -542q120 -66 292 -66q165 0 304 43v441h-325l7 140h481v-674q-233 -90 -498 -90 q-319 0 -503 206q-168 186 -182 490q-1 25 -1 51z" />
<glyph unicode="H" horiz-adv-x="1440" d="M164 0v1460h176v-651h760v651h176v-1460h-176v681h-760v-681h-176z" />
<glyph unicode="I" horiz-adv-x="818" d="M114 0v107h208v1246h-208v107h590v-107h-206v-1246h206v-107h-590z" />
<glyph unicode="J" horiz-adv-x="713" d="M20 -35l80 12q159 24 216 91q54 64 54 203v1189h177v-1164q0 -228 -97 -333q-99 -106 -338 -131l-76 -8z" />
<glyph unicode="K" horiz-adv-x="1256" d="M164 0v1460h176v-699l654 699h206l-598 -649l628 -811h-206l-554 721l-130 -120v-601h-176z" />
<glyph unicode="L" horiz-adv-x="1066" d="M164 0v1460h176v-1326h674l-4 -134h-846z" />
<glyph unicode="M" horiz-adv-x="1744" d="M156 0l29 1460h216l473 -1109l475 1109h210l29 -1460h-164l-14 905v329l-463 -1071h-151l-460 1083v-345l-14 -901h-166z" />
<glyph unicode="N" horiz-adv-x="1488" d="M164 0v1460h174l833 -1243l-9 411v832h162v-1460h-181l-830 1235l14 -454v-781h-163z" />
<glyph unicode="O" horiz-adv-x="1616" d="M120 722q0 335 173 538q174 205 478 219q21 1 41 1q303 0 487 -193q178 -188 195 -503q2 -32 2 -64q0 -323 -167 -522q-176 -207 -487 -217q-16 -1 -31 -1q-331 0 -516 209q-175 199 -175 533zM297 721q0 -305 155 -464q133 -137 357 -137q285 0 417 214q94 153 94 387 q0 307 -150 473q-134 147 -359 147q-265 0 -401 -197q-113 -163 -113 -423z" />
<glyph unicode="P" horiz-adv-x="1194" d="M164 0v1460h495q411 0 463 -276q7 -38 7 -81q0 -291 -246 -368q-95 -29 -227 -29h-316v-706h-176zM340 841h312q184 0 249 75q52 60 52 185q0 172 -160 213q-56 14 -135 14h-318v-487z" />
<glyph unicode="Q" horiz-adv-x="1616" d="M120 722q0 335 173 538q174 205 478 219q21 1 41 1q303 0 487 -193q178 -188 195 -503q2 -32 2 -64q0 -323 -167 -522q-176 -207 -487 -217q-16 -1 -31 -1q-331 0 -516 209q-175 199 -175 533zM297 721q0 -305 155 -464q133 -137 357 -137q285 0 417 214q94 153 94 387 q0 307 -150 473q-134 147 -359 147q-265 0 -401 -197q-113 -163 -113 -423zM940 51l148 28q56 -116 202 -290q44 -53 82 -92l-112 -98q-79 74 -192 240q-79 115 -128 212z" />
<glyph unicode="R" horiz-adv-x="1333" d="M164 0v1460h587q324 0 412 -183q37 -78 37 -188q0 -239 -170 -327q-38 -20 -85 -33q42 -102 298 -691q8 -20 16 -38h-182q-214 520 -295 704h-442v-704h-176zM340 832h384q186 0 249 60q53 51 55 179v15q0 149 -88 203q-65 39 -186 39h-414v-496z" />
<glyph unicode="S" horiz-adv-x="1167" d="M138 1100q0 214 177 314q119 66 287 66q200 0 370 -87q24 -12 45 -25l-64 -124q-110 76 -277 93q-35 4 -68 4q-179 0 -259 -87q-49 -54 -49 -133q0 -106 58 -160q41 -38 128 -72l230 -90q166 -65 235 -124q113 -94 117 -268v-14q0 -260 -213 -360q-113 -53 -267 -53 q-188 0 -343 68q-65 29 -103 63v158q150 -109 342 -140q56 -9 107 -9q187 0 267 106q49 65 49 161q0 107 -52 161q-49 50 -185 103l-238 91q-175 66 -240 162q-54 79 -54 196z" />
<glyph unicode="T" horiz-adv-x="1115" d="M34 1326v134h1047v-134h-437v-1326h-176v1326h-434z" />
<glyph unicode="U" horiz-adv-x="1412" d="M134 529v931h176v-928q2 -410 396 -411q318 0 381 270q15 64 15 141v928h176v-934q0 -261 -158 -407q-152 -138 -414 -138q-331 0 -477 207q-95 136 -95 341z" />
<glyph unicode="V" horiz-adv-x="1352" d="M60 1460h182q48 -138 144 -416q192 -555 291 -829q28 78 397 1138q19 56 37 107h181l-539 -1460h-154z" />
<glyph unicode="W" horiz-adv-x="2049" d="M50 1460h167l359 -1237l364 1206h170l363 -1205l356 1236h170l-439 -1460h-171l-362 1219l-371 -1219h-167z" />
<glyph unicode="X" horiz-adv-x="1275" d="M71 0l467 732l-464 728h201l375 -589l359 589h188l-459 -728l466 -732h-199l-375 589l-373 -589h-186z" />
<glyph unicode="Y" horiz-adv-x="1234" d="M50 1460h174l405 -710l381 710h174l-469 -855v-605h-170v603z" />
<glyph unicode="Z" horiz-adv-x="1224" d="M149 0v124l753 1204h-720v132h909l7 -121l-749 -1205h756l-8 -134h-948z" />
<glyph unicode="[" horiz-adv-x="674" d="M171 -255v1715h464v-118h-288v-1480h288v-117h-464z" />
<glyph unicode="\" horiz-adv-x="924" d="M126 1460h131l543 -1480h-130z" />
<glyph unicode="]" horiz-adv-x="676" d="M58 -138h288v1480h-288v118h464v-1715h-464v117z" />
<glyph unicode="^" horiz-adv-x="1253" d="M151 565l427 895h91l451 -895h-128l-367 738l-349 -738h-125z" />
<glyph unicode="_" horiz-adv-x="1057" d="M84 -141h896v-119h-896v119z" />
<glyph unicode="`" horiz-adv-x="650" d="M144 1460h188l176 -402h-94z" />
<glyph unicode="a" horiz-adv-x="1050" d="M97 286q0 208 173 283q115 50 315 50h169v104q0 181 -138 219q-41 11 -93 11q-152 0 -295 -55q-24 -9 -45 -19l-45 122q155 72 354 79h28q325 0 384 -250q14 -59 14 -131v-698h-126l-18 146q-137 -167 -354 -167q-174 0 -261 109q-62 79 -62 197zM255 285q0 -116 86 -163 q40 -21 89 -21q205 1 324 175v233h-127q-243 0 -319 -68q-53 -49 -53 -156z" />
<glyph unicode="b" horiz-adv-x="1165" d="M136 0v1460l168 12v-394l-1 -184q93 141 245 176q44 10 89 10q260 0 371 -212q71 -136 71 -340q0 -291 -149 -436q-116 -112 -301 -112q-190 0 -313 162q-16 21 -30 44l-15 -186h-135zM300 545q0 -318 174 -407q61 -31 139 -31q295 2 296 421q-2 425 -288 426 q-254 0 -308 -262q-13 -67 -13 -147z" />
<glyph unicode="c" horiz-adv-x="935" d="M84 524q0 270 152 422q135 134 345 134q159 0 271 -62q10 -5 17 -10l-47 -114q-98 58 -221 58q-166 0 -261 -129q-86 -116 -86 -299q0 -221 120 -332q92 -84 237 -84q115 0 214 53q5 3 9 5l31 -113q-54 -43 -169 -63q-57 -10 -116 -10q-232 0 -367 154q-129 148 -129 390 z" />
<glyph unicode="d" horiz-adv-x="1169" d="M98 537q0 252 130 401q124 142 325 142q181 0 277 -117q26 -31 49 -73l-8 241v329l166 12v-1472h-138l-15 187q-95 -192 -296 -206q-17 -1 -34 -1q-241 0 -362 184q-94 145 -94 373zM266 534q0 -328 183 -405q53 -22 119 -22q259 0 300 289q8 56 8 122q0 390 -242 430 q-28 5 -57 5q-219 0 -285 -218q-26 -86 -26 -201z" />
<glyph unicode="e" horiz-adv-x="1068" d="M84 524q0 257 141 410q127 139 323 146h18q242 0 345 -193q63 -121 63 -300l-6 -84h-715q11 -277 190 -363q71 -34 161 -34q126 0 260 63q20 9 43 21l35 -117q-150 -89 -335 -93h-22q-221 0 -357 142q-144 149 -144 402zM258 611h576q-14 341 -264 342q-149 0 -236 -121 q-64 -89 -76 -221z" />
<glyph unicode="f" horiz-adv-x="698" d="M31 953l5 87l187 17v67q0 253 133 324q61 32 156 32q58 0 144 -17l-12 -115q-50 10 -102 10q-80 0 -110 -32q-43 -47 -43 -192v-76h251v-105h-251v-953h-166v953h-192z" />
<glyph unicode="g" horiz-adv-x="1159" d="M92 530q0 255 125 404q124 146 341 146q217 -1 312 -174l10 152h151v-974q0 -360 -188 -485q-113 -75 -298 -75q-142 0 -321 41l13 140q183 -43 308 -43q213 0 287 138q46 88 46 237v29l-3 124q-81 -144 -256 -171q-36 -5 -74 -5q-231 0 -354 175q-99 140 -99 341z M260 538q0 -234 116 -334q74 -63 187 -63q221 0 284 197q21 67 22 152v89q0 355 -272 373q-16 1 -31 1q-207 0 -276 -207q-30 -90 -30 -208z" />
<glyph unicode="h" horiz-adv-x="1131" d="M134 0v1460l166 12v-354l-6 -207q100 142 286 165q33 4 66 4q226 0 312 -186q45 -99 45 -240v-654h-166v648q0 210 -92 273q-49 33 -128 33q-252 0 -305 -243q-13 -60 -13 -132v-579h-165z" />
<glyph unicode="i" horiz-adv-x="494" d="M138 1354q0 66 54 93q25 13 55 13q67 0 96 -52q13 -25 13 -54q0 -65 -53 -94q-26 -13 -56 -13q-67 0 -96 53q-13 25 -13 54zM164 0v1058h164v-1058h-164z" />
<glyph unicode="j" horiz-adv-x="545" d="M1 -250l62 12q94 18 122 51q27 32 29 125q1 25 1 73v1047h167v-1077q0 -188 -71 -264q-64 -67 -224 -87q-4 -1 -8 -1l-59 -7zM189 1354q0 66 54 93q25 13 55 13q67 0 96 -52q13 -25 13 -54q0 -65 -53 -94q-26 -13 -56 -13q-67 0 -96 53q-13 25 -13 54z" />
<glyph unicode="k" horiz-adv-x="1039" d="M140 0v1460l164 12v-733l-6 -218l496 537h201l-462 -483l500 -575h-195l-420 495l-114 -108v-387h-164z" />
<glyph unicode="l" horiz-adv-x="634" d="M154 303v1157l164 12v-1172q0 -111 36 -147q32 -30 129 -40q21 -2 54 -4l45 -3l-9 -114h-79q-178 0 -253 60q-87 71 -87 251z" />
<glyph unicode="m" horiz-adv-x="1705" d="M132 0v1058h134l19 -156q124 177 326 178q185 0 267 -155q14 -28 26 -60q120 214 349 215q323 -2 324 -398v-682h-166v630q0 156 -26 221q-42 101 -158 102q-125 0 -204 -98q-49 -61 -69 -147q-8 -28 -11 -165v-543h-166v594q0 222 -54 298q-45 61 -139 61 q-169 0 -245 -165q-29 -63 -41 -143v-645h-166z" />
<glyph unicode="n" horiz-adv-x="1133" d="M132 0v1058h144l18 -146q121 167 359 168q274 0 335 -252q19 -78 19 -181v-647h-166v665q0 190 -83 251q-51 37 -134 37q-325 -2 -326 -363v-590h-166z" />
<glyph unicode="o" horiz-adv-x="1165" d="M84 528q0 260 141 410q134 142 357 142q247 0 382 -169q117 -148 117 -383q0 -237 -131 -388t-346 -160h-22q-232 0 -368 157q-130 151 -130 391zM254 527q0 -228 115 -340q84 -81 213 -81q201 0 283 177q46 100 46 243q0 249 -127 358q-80 69 -202 69q-188 0 -273 -164 q-55 -106 -55 -262z" />
<glyph unicode="p" horiz-adv-x="1156" d="M132 -464v1522h138l17 -185q113 200 332 207h14q249 0 361 -203q76 -139 76 -351q0 -268 -133 -416q-117 -130 -307 -130q-212 0 -330 185q-5 7 -9 14l7 -245v-398h-166zM291 545q0 -276 138 -382q73 -56 175 -56q264 0 293 339q3 39 3 82q-2 424 -286 425 q-241 0 -303 -238q-20 -75 -20 -170z" />
<glyph unicode="q" horiz-adv-x="1183" d="M84 522q0 261 134 413q127 145 338 145q220 0 327 -182q3 -6 6 -11l18 171h150v-1522h-164v393l4 247q-103 -188 -324 -196h-19q-196 0 -326 139t-143 361q-1 21 -1 42zM248 531q0 -258 134 -364q78 -61 192 -61q314 2 315 443q0 277 -156 366q-67 38 -158 38 q-201 0 -282 -179q-45 -100 -45 -243z" />
<glyph unicode="r" horiz-adv-x="730" d="M138 0v1058h133l18 -210q96 182 264 215q32 6 65 6q46 0 74 -5l-7 -136q-40 8 -68 8q-140 0 -230 -104q-83 -97 -83 -233v-599h-166z" />
<glyph unicode="s" horiz-adv-x="890" d="M106 792q0 149 116 227q91 61 234 61q174 0 323 -74l-39 -123q-138 70 -267 70q-184 0 -210 -113q-4 -21 -4 -45q0 -66 35 -97q33 -28 132 -59l105 -33q183 -57 242 -136q48 -64 48 -182q0 -189 -157 -266q-86 -42 -204 -42q-167 0 -331 78v139q184 -88 332 -91h11 q150 0 190 108q12 35 12 77q0 77 -69 124q-47 31 -134 59l-116 37q-176 56 -224 154q-25 51 -25 127z" />
<glyph unicode="t" horiz-adv-x="737" d="M35 953l4 94l163 11l27 280l133 10v-290h280v-105h-280v-636q0 -117 31 -156t128 -48q22 -2 50 -3l84 -4l-8 -114h-69q-211 0 -292 60q-75 57 -86 200q-2 30 -2 65v636h-163z" />
<glyph unicode="u" horiz-adv-x="1125" d="M126 412v646h166v-664q0 -217 123 -269q44 -18 104 -18q278 0 304 289q3 33 3 68v594h166v-1058h-144l-17 139q-67 -105 -175 -139q-66 -20 -157 -20q-315 0 -364 312q-9 56 -9 120z" />
<glyph unicode="v" horiz-adv-x="1080" d="M52 1058h170q38 -102 112 -305q140 -380 211 -569q53 146 157 437q106 292 158 437h169l-401 -1058h-167z" />
<glyph unicode="w" horiz-adv-x="1563" d="M52 1058h157l226 -855l260 855h177l276 -852l211 852h152l-285 -1058h-147l-294 912l-278 -912h-158z" />
<glyph unicode="x" horiz-adv-x="1036" d="M34 0l395 543l-368 515h185l294 -411l290 411h168l-378 -523l382 -535h-185l-303 425l-313 -425h-167z" />
<glyph unicode="y" horiz-adv-x="1075" d="M66 1058h169l330 -845l302 845h168l-557 -1456l-149 32l156 398z" />
<glyph unicode="z" horiz-adv-x="923" d="M114 0v107l538 832h-511l-6 119h690v-114l-528 -820h533l4 -124h-720z" />
<glyph unicode="{" horiz-adv-x="901" d="M183 593v146q133 0 173 84q26 56 26 197v170q0 200 159 270q74 32 175 33v-122q-98 -1 -130 -48q-27 -41 -28 -166v-17v-197q-1 -146 -69 -215q-40 -39 -109 -66q118 -33 155 -122q23 -57 23 -147v-197q0 -130 23 -173q29 -53 121 -58h14v-119q-288 0 -327 247 q-7 43 -7 91v126q0 140 -23 194q-36 82 -158 88q-9 1 -18 1z" />
<glyph unicode="|" horiz-adv-x="602" d="M228 -216v1766h146v-1766h-146z" />
<glyph unicode="}" horiz-adv-x="901" d="M223 -32q98 1 130 48q27 41 28 166v17v197q1 146 69 215q40 39 109 66q-118 33 -155 122q-23 57 -23 147v197q0 130 -23 173q-29 53 -121 58h-14v119q288 0 327 -247q7 -43 7 -91v-126q0 -140 23 -194q36 -82 158 -88q9 -1 18 -1v-146q-133 0 -173 -84q-26 -56 -26 -197 v-170q0 -200 -159 -270q-74 -32 -175 -33v122z" />
<glyph unicode="~" d="M114 585q57 138 172 178q41 15 87 15q76 0 178 -42q22 -9 58 -25q137 -58 161 -65q43 -14 73 -14q82 0 152 81q30 35 48 75l47 -87q-81 -195 -249 -196q-77 0 -215 61q-4 2 -7 3q-143 63 -196 74q-29 6 -53 6q-94 0 -172 -95q-25 -29 -43 -63z" />
<glyph unicode="&#xa1;" horiz-adv-x="476" d="M136 1083q0 69 51 99q28 16 64 16q78 0 106 -66q9 -24 9 -49q0 -66 -50 -97q-28 -17 -65 -17q-78 0 -106 65q-9 24 -9 49zM167 -156l52 923h66l58 -923v-119h-176v119z" />
<glyph unicode="&#xa2;" horiz-adv-x="982" d="M84 524q0 270 152 422q135 134 345 134q159 0 271 -62q10 -5 17 -10l-47 -114q-98 58 -221 58q-166 0 -261 -129q-86 -116 -86 -299q0 -221 120 -332q92 -84 237 -84q115 0 214 53q5 3 9 5l31 -113q-54 -43 -169 -63q-57 -10 -116 -10q-232 0 -367 154q-129 148 -129 390 zM495 53h157l-38 -331h-66zM505 1009l38 331h66l53 -331h-157z" />
<glyph unicode="&#xa3;" d="M143 112l172 17v537h-172v120h172v152q0 471 314 533q49 9 104 9q193 -1 341 -126l-68 -115q-134 102 -273 102q-159 0 -211 -135q-31 -84 -31 -240v-180h383v-120h-383v-535h597l-13 -131h-920z" />
<glyph unicode="&#xa4;" horiz-adv-x="1280" d="M143 1125l64 63l179 -169q111 92 260 92q147 -1 259 -93l181 170l61 -65l-180 -172q81 -112 81 -244q-1 -140 -80 -244l178 -173l-60 -65l-181 170q-111 -90 -259 -90q-150 1 -259 91l-180 -170l-63 65l181 172q-81 107 -81 244q1 138 81 244zM341 707q0 -138 89 -227 q86 -86 216 -86q148 0 235 106q71 86 71 207q0 136 -88 226q-86 88 -218 88q-146 0 -233 -106q-72 -88 -72 -208z" />
<glyph unicode="&#xa5;" horiz-adv-x="1234" d="M50 1460h174l405 -710l381 710h174l-469 -855v-605h-170v603zM221 284v104h382v187h-380v104h806v-104h-362v-187h363v-104h-809z" />
<glyph unicode="&#xa6;" horiz-adv-x="334" d="M110 -208v743h124v-743h-124zM110 800v740h124v-740h-124z" />
<glyph unicode="&#xa7;" horiz-adv-x="1000" d="M164 792q1 126 84 202q-79 65 -84 181v18q0 149 116 227q91 61 234 61q174 0 323 -74l-39 -123q-138 70 -267 70q-184 0 -210 -113q-4 -21 -4 -45q0 -66 35 -97q33 -28 132 -59l105 -33q183 -57 242 -136q48 -64 48 -182q-1 -121 -67 -197q63 -64 67 -185v-19 q0 -189 -157 -266q-86 -42 -204 -42q-167 0 -331 78v139q184 -88 332 -91h11q150 0 190 108q12 35 12 77q0 77 -69 124q-47 31 -134 59l-116 37q-176 56 -224 154q-25 51 -25 127zM317 795q0 -66 35 -97q33 -28 132 -59l105 -33q53 -16 103 -38q40 47 40 124t-69 124 q-47 31 -134 59l-116 37q-12 3 -31 11q-65 -39 -65 -128z" />
<glyph unicode="&#xa8;" horiz-adv-x="740" d="M42 1325q0 64 54 93q26 13 57 13q66 0 96 -51q15 -25 15 -55q0 -63 -53 -93q-27 -14 -58 -14q-66 0 -96 51q-15 26 -15 56zM476 1325q0 64 54 93q26 13 57 13q66 0 96 -51q15 -25 15 -55q0 -63 -53 -93q-27 -14 -58 -14q-66 0 -96 51q-15 26 -15 56z" />
<glyph unicode="&#xa9;" horiz-adv-x="1791" d="M139 730q0 321 200 527q161 165 403 210q75 14 151 14q246 0 442 -129q216 -143 287 -394q30 -108 30 -228q0 -319 -200 -525q-161 -166 -405 -212q-77 -14 -154 -14q-244 0 -438 129q-215 142 -286 393q-30 108 -30 229zM243 730q0 -292 180 -476q147 -151 368 -184 q51 -7 102 -7q224 0 397 125q191 139 242 381q16 77 16 161q0 291 -181 474q-148 150 -369 183q-52 8 -105 8q-225 0 -396 -126q-192 -140 -240 -386q-14 -74 -14 -153zM438 727q0 194 121 334q113 129 279 154q34 5 67 5q157 -1 286 -90l-43 -87q-93 70 -215 79 q-13 1 -24 1q-142 0 -242 -104q-106 -116 -108 -287q0 -195 117 -307q99 -95 241 -95q127 1 242 70l35 -83q-130 -83 -281 -83q-179 0 -311 116q-136 119 -160 306q-4 36 -4 71z" />
<glyph unicode="&#xaa;" horiz-adv-x="1050" d="M150 832q0 170 152 231q101 41 276 41h148v85q0 147 -121 178q-36 9 -81 9q-134 0 -259 -44q-21 -8 -40 -16l-39 100q136 58 310 64h25q285 0 337 -204q12 -48 12 -107v-569h-111l-15 119q-121 -136 -311 -136q-152 0 -229 89q-54 64 -54 160zM289 831q0 -94 75 -132 q35 -18 78 -18q180 1 284 143v190h-111q-213 0 -280 -55q-46 -40 -46 -128z" />
<glyph unicode="&#xab;" horiz-adv-x="985" d="M101 539l288 394h121l-264 -391l256 -394h-117zM454 539l287 394h121l-264 -391l257 -394h-117z" />
<glyph unicode="&#xac;" horiz-adv-x="1182" d="M101 666v125h956v-538h-121v413h-835z" />
<glyph unicode="&#xad;" horiz-adv-x="957" d="M114 205v133h742v-133h-742z" />
<glyph unicode="&#xae;" horiz-adv-x="1788" d="M142 730q0 318 197 523q160 167 401 213q76 14 153 14q244 0 439 -130q213 -142 284 -391q30 -108 30 -229q0 -319 -199 -525q-160 -166 -402 -211q-76 -14 -152 -14q-244 0 -438 130q-214 143 -283 393q-30 107 -30 227zM246 730q0 -292 179 -476q147 -151 367 -183 q50 -7 101 -7q223 0 395 125q191 140 240 384q15 75 15 156q0 289 -178 473q-147 151 -365 185q-54 8 -107 8q-223 0 -394 -126q-189 -139 -238 -383q-15 -75 -15 -156zM600 293v919h316q211 0 276 -92q37 -54 37 -146q0 -185 -142 -227q-23 -7 -49 -10q7 -10 63 -121 t109 -217l52 -106h-124l-200 409q-9 18 -11 20h-216v-429h-111zM712 820h224q129 0 165 57q20 33 20 93q0 91 -51 120q-44 24 -170 24h-188v-294z" />
<glyph unicode="&#xaf;" horiz-adv-x="1056" d="M224 1341v119h585v-119h-585z" />
<glyph unicode="&#xb0;" horiz-adv-x="809" d="M105 1195q0 129 98 212q86 73 201 73q126 0 214 -83q87 -82 87 -202q0 -125 -93 -209q-88 -79 -208 -79q-124 0 -211 82q-88 84 -88 206zM213 1194q0 -101 76 -157q50 -36 115 -36q95 0 151 70q42 52 42 123q0 99 -75 154q-51 38 -117 38q-93 0 -150 -69 q-42 -52 -42 -123z" />
<glyph unicode="&#xb1;" d="M137 0v115h929v-115h-929zM158 595v116h372v379h125v-379h366v-116h-365v-388h-126v388h-372z" />
<glyph unicode="&#xb2;" horiz-adv-x="730" d="M79 1343q47 88 154 133q66 28 131 28q153 0 224 -94q45 -60 45 -147q0 -127 -116 -262q-55 -63 -212 -205q-35 -32 -55 -50h372v-97h-515v90l98 98q180 178 236 248q80 101 80 169q0 106 -82 140q-29 12 -63 12q-135 -1 -226 -122z" />
<glyph unicode="&#xb3;" horiz-adv-x="800" d="M128 1380q58 63 178 87q43 8 80 8q115 0 186 -71q61 -63 61 -158q0 -76 -57 -128q-36 -32 -87 -45q115 -34 150 -132q13 -35 13 -74q0 -132 -97 -202q-70 -50 -164 -50q-117 0 -206 47q-33 18 -55 40l49 96q56 -50 155 -66q24 -4 45 -4q90 0 125 68q17 32 17 75 q0 90 -96 123q-43 15 -97 15h-74v113h71q116 0 159 62q18 27 18 60q0 89 -76 112q-21 6 -45 6q-82 0 -157 -40q-27 -14 -42 -29z" />
<glyph unicode="&#xb4;" horiz-adv-x="619" d="M112 1058l183 402h206l-292 -402h-97z" />
<glyph unicode="&#xb5;" horiz-adv-x="1206" d="M200 408v647h166v-665q0 -190 83 -251q51 -37 134 -37q325 2 326 363v590h166v-1058h-144l-18 146q-121 -167 -359 -168q-274 0 -335 252q-19 78 -19 181z" />
<glyph unicode="&#xb6;" d="M139 1129q0 158 113 247q108 84 300 84h509v-119h-116v-1341h-124v1341h-176v-1341h-124v791q-243 0 -336 157q-46 79 -46 181z" />
<glyph unicode="&#xb7;" horiz-adv-x="478" d="M128 621q0 64 54 93q26 13 57 13q66 0 96 -51q15 -25 15 -55q0 -63 -53 -93q-27 -14 -58 -14q-66 0 -96 51q-15 26 -15 56z" />
<glyph unicode="&#xb8;" horiz-adv-x="575" d="M125 -376l88 386h83l-38 -386h-133z" />
<glyph unicode="&#xb9;" horiz-adv-x="802" d="M192 1235v133q44 10 144 63q48 25 62 38h130v-687h166v-123h-497v123h175v525q-50 -31 -149 -63q-20 -7 -31 -9z" />
<glyph unicode="&#xba;" horiz-adv-x="844" d="M85 1105q0 191 110 293q88 82 226 82q197 0 283 -150q53 -92 53 -225q0 -169 -100 -274q-94 -96 -236 -96q-181 0 -271 134q-65 96 -65 236zM222 1105q0 -209 127 -254q33 -12 72 -12q167 0 199 178q7 39 7 85q0 195 -113 253q-41 21 -93 21q-141 0 -183 -145 q-16 -55 -16 -126z" />
<glyph unicode="&#xbb;" horiz-adv-x="989" d="M121 148l264 391l-257 394h117l284 -391l-287 -394h-121zM473 148l264 391l-256 394h117l284 -391l-288 -394h-121z" />
<glyph unicode="&#xbc;" horiz-adv-x="1585" d="M73 1248v111q91 33 161 78q20 13 31 23h110v-753h139v-109h-431v109h154v613q-53 -33 -164 -72zM328 0l908 1480h131l-907 -1480h-132zM937 186v91l368 559h138v-546h113l8 -104h-122v-186h-127v186h-378zM1076 290h238v383z" />
<glyph unicode="&#xbd;" horiz-adv-x="1645" d="M73 1248v111q91 33 161 78q20 13 31 23h110v-753h139v-109h-431v109h154v613q-53 -33 -164 -72zM303 6l908 1473h133l-908 -1473h-133zM982 690q51 89 166 130q61 21 123 21q136 0 218 -79q69 -68 69 -171q0 -50 -11.5 -90t-43 -82.5t-57.5 -69.5t-85 -83l-1 -1 l-171 -163h361l-6 -111h-521v107l248 242q120 118 145 185q10 28 10 58q0 94 -81 128q-33 13 -72 13q-119 0 -200 -89q-10 -11 -19 -23z" />
<glyph unicode="&#xbe;" horiz-adv-x="1615" d="M87 1380q58 63 178 87q43 8 80 8q115 0 186 -71q61 -63 61 -158q0 -76 -57 -128q-36 -32 -87 -45q115 -34 150 -132q13 -35 13 -74q0 -132 -97 -202q-70 -50 -164 -50q-117 0 -206 47q-33 18 -55 40l49 96q56 -50 155 -66q24 -4 45 -4q90 0 125 68q17 32 17 75 q0 90 -96 123q-43 15 -97 15h-74v113h71q116 0 159 62q18 27 18 60q0 89 -76 112q-21 6 -45 6q-82 0 -157 -40q-27 -14 -42 -29zM349 0l908 1480h131l-907 -1480h-132zM937 186v91l368 559h138v-546h113l8 -104h-122v-186h-127v186h-378zM1076 290h238v383z" />
<glyph unicode="&#xbf;" horiz-adv-x="929" d="M147 9q0 132 81 258q15 23 105 143q111 150 158 284q8 22 15 45h90q-5 -146 -105 -329q-17 -31 -52 -91q-83 -141 -105 -208q-16 -52 -16 -97q0 -185 166 -208q23 -3 47 -3q125 0 261 85l36 -123q-137 -93 -316 -93q-191 0 -288 110q-77 86 -77 227zM440 1054q0 70 55 98 q26 13 59 13q79 0 106 -64q9 -23 9 -47q0 -66 -52 -95q-27 -15 -63 -15q-80 0 -106 64q-8 22 -8 46z" />
<glyph unicode="&#xc0;" horiz-adv-x="1360" d="M52 0l535 1460h187l534 -1460h-174l-172 470h-559l-171 -470h-180zM363 2004h188l176 -402h-94zM444 592h478l-240 696z" />
<glyph unicode="&#xc1;" horiz-adv-x="1360" d="M52 0l535 1460h187l534 -1460h-174l-172 470h-559l-171 -470h-180zM444 592h478l-240 696zM632 1602l183 402h206l-292 -402h-97z" />
<glyph unicode="&#xc2;" horiz-adv-x="1360" d="M52 0l535 1460h187l534 -1460h-174l-172 470h-559l-171 -470h-180zM412 1602l180 373h187l168 -373h-112l-154 274l-158 -274h-111zM444 592h478l-240 696z" />
<glyph unicode="&#xc3;" horiz-adv-x="1360" d="M52 0l535 1460h187l534 -1460h-174l-172 470h-559l-171 -470h-180zM387 1602q0 160 107 193q24 7 51 7q67 0 177 -50q80 -35 106 -36q43 0 56 60q2 12 4 25h86q0 -152 -89 -189q-24 -10 -51 -10q-56 0 -165 51q-99 43 -130 46q-56 0 -68 -95v-2h-84zM444 592h478 l-240 696z" />
<glyph unicode="&#xc4;" horiz-adv-x="1360" d="M52 0l535 1460h187l534 -1460h-174l-172 470h-559l-171 -470h-180zM352 1709q0 64 54 93q26 13 57 13q66 0 96 -51q15 -25 15 -55q0 -63 -53 -93q-27 -14 -58 -14q-66 0 -96 51q-15 26 -15 56zM444 592h478l-240 696zM786 1709q0 64 54 93q26 13 57 13q66 0 96 -51 q15 -25 15 -55q0 -63 -53 -93q-27 -14 -58 -14q-66 0 -96 51q-15 26 -15 56z" />
<glyph unicode="&#xc5;" horiz-adv-x="1360" d="M52 0l535 1460h187l534 -1460h-174l-172 470h-559l-171 -470h-180zM444 592h478l-240 696zM496 1644q0 87 68 138q50 38 116 38q95 0 148 -70q35 -46 35 -106q0 -87 -68 -139q-50 -37 -115 -37q-94 0 -148 69q-36 47 -36 107zM584 1643q0 -57 45 -86q24 -14 51 -14 q56 0 83 49q13 24 13 51q0 56 -45 85q-23 14 -51 14q-55 0 -83 -48q-13 -24 -13 -51z" />
<glyph unicode="&#xc6;" horiz-adv-x="1653" d="M52 0l643 1460h871l-6 -132h-612v-507h550v-132h-550v-555h633l-12 -134h-790v470h-343l-201 -470h-183zM484 592h295v716z" />
<glyph unicode="&#xc7;" horiz-adv-x="1292" d="M120 735q0 305 160 506q155 194 414 231q55 8 112 8q228 0 382 -98q11 -7 21 -14l-58 -115q-125 78 -295 87q-18 1 -35 1q-242 0 -384 -170q-140 -168 -140 -442q0 -277 146 -443q146 -165 391 -165q161 0 325 77l41 -131q-162 -82 -369 -86h-16q-276 0 -462 167 q-188 169 -225 457q-8 64 -8 130zM535 -392l88 386h83l-38 -386h-133z" />
<glyph unicode="&#xc8;" horiz-adv-x="1133" d="M164 0v1460h882l-6 -132h-700v-507h638v-132h-638v-555h721l-12 -134h-885zM296 2004h188l176 -402h-94z" />
<glyph unicode="&#xc9;" horiz-adv-x="1133" d="M164 0v1460h882l-6 -132h-700v-507h638v-132h-638v-555h721l-12 -134h-885zM564 1602l183 402h206l-292 -402h-97z" />
<glyph unicode="&#xca;" horiz-adv-x="1133" d="M164 0v1460h882l-6 -132h-700v-507h638v-132h-638v-555h721l-12 -134h-885zM345 1602l180 373h187l168 -373h-112l-154 274l-158 -274h-111z" />
<glyph unicode="&#xcb;" horiz-adv-x="1133" d="M164 0v1460h882l-6 -132h-700v-507h638v-132h-638v-555h721l-12 -134h-885zM284 1709q0 64 54 93q26 13 57 13q66 0 96 -51q15 -25 15 -55q0 -63 -53 -93q-27 -14 -58 -14q-66 0 -96 51q-15 26 -15 56zM718 1709q0 64 54 93q26 13 57 13q66 0 96 -51q15 -25 15 -55 q0 -63 -53 -93q-27 -14 -58 -14q-66 0 -96 51q-15 26 -15 56z" />
<glyph unicode="&#xcc;" horiz-adv-x="818" d="M92 2004h188l176 -402h-94zM114 0v107h208v1246h-208v107h590v-107h-206v-1246h206v-107h-590z" />
<glyph unicode="&#xcd;" horiz-adv-x="818" d="M114 0v107h208v1246h-208v107h590v-107h-206v-1246h206v-107h-590zM360 1602l183 402h206l-292 -402h-97z" />
<glyph unicode="&#xce;" horiz-adv-x="818" d="M114 0v107h208v1246h-208v107h590v-107h-206v-1246h206v-107h-590zM142 1602l180 373h187l168 -373h-112l-154 274l-158 -274h-111z" />
<glyph unicode="&#xcf;" horiz-adv-x="818" d="M81 1709q0 64 54 93q26 13 57 13q66 0 96 -51q15 -25 15 -55q0 -63 -53 -93q-27 -14 -58 -14q-66 0 -96 51q-15 26 -15 56zM114 0v107h208v1246h-208v107h590v-107h-206v-1246h206v-107h-590zM515 1709q0 64 54 93q26 13 57 13q66 0 96 -51q15 -25 15 -55q0 -63 -53 -93 q-27 -14 -58 -14q-66 0 -96 51q-15 26 -15 56z" />
<glyph unicode="&#xd0;" horiz-adv-x="1522" d="M62 681v114h596v-114h-596zM164 0v1460h414q405 0 609 -218q173 -186 173 -508q0 -370 -224 -564q-198 -170 -529 -170h-443zM340 134h257q439 0 551 340q36 111 36 255q0 512 -445 586q-78 13 -169 13h-230v-1194z" />
<glyph unicode="&#xd1;" horiz-adv-x="1488" d="M164 0v1460h174l833 -1243l-9 411v832h162v-1460h-181l-830 1235l14 -454v-781h-163zM451 1602q0 160 107 193q24 7 51 7q67 0 177 -50q80 -35 106 -36q43 0 56 60q2 12 4 25h86q0 -152 -89 -189q-24 -10 -51 -10q-56 0 -165 51q-99 43 -130 46q-56 0 -68 -95v-2h-84z " />
<glyph unicode="&#xd2;" horiz-adv-x="1616" d="M120 722q0 335 173 538q174 205 478 219q21 1 41 1q303 0 487 -193q178 -188 195 -503q2 -32 2 -64q0 -323 -167 -522q-176 -207 -487 -217q-16 -1 -31 -1q-331 0 -516 209q-175 199 -175 533zM297 721q0 -305 155 -464q133 -137 357 -137q285 0 417 214q94 153 94 387 q0 307 -150 473q-134 147 -359 147q-265 0 -401 -197q-113 -163 -113 -423zM491 2004h188l176 -402h-94z" />
<glyph unicode="&#xd3;" horiz-adv-x="1616" d="M120 722q0 335 173 538q174 205 478 219q21 1 41 1q303 0 487 -193q178 -188 195 -503q2 -32 2 -64q0 -323 -167 -522q-176 -207 -487 -217q-16 -1 -31 -1q-331 0 -516 209q-175 199 -175 533zM297 721q0 -305 155 -464q133 -137 357 -137q285 0 417 214q94 153 94 387 q0 307 -150 473q-134 147 -359 147q-265 0 -401 -197q-113 -163 -113 -423zM760 1602l183 402h206l-292 -402h-97z" />
<glyph unicode="&#xd4;" horiz-adv-x="1616" d="M120 722q0 335 173 538q174 205 478 219q21 1 41 1q303 0 487 -193q178 -188 195 -503q2 -32 2 -64q0 -323 -167 -522q-176 -207 -487 -217q-16 -1 -31 -1q-331 0 -516 209q-175 199 -175 533zM297 721q0 -305 155 -464q133 -137 357 -137q285 0 417 214q94 153 94 387 q0 307 -150 473q-134 147 -359 147q-265 0 -401 -197q-113 -163 -113 -423zM540 1602l180 373h187l168 -373h-112l-154 274l-158 -274h-111z" />
<glyph unicode="&#xd5;" horiz-adv-x="1616" d="M120 722q0 335 173 538q174 205 478 219q21 1 41 1q303 0 487 -193q178 -188 195 -503q2 -32 2 -64q0 -323 -167 -522q-176 -207 -487 -217q-16 -1 -31 -1q-331 0 -516 209q-175 199 -175 533zM297 721q0 -305 155 -464q133 -137 357 -137q285 0 417 214q94 153 94 387 q0 307 -150 473q-134 147 -359 147q-265 0 -401 -197q-113 -163 -113 -423zM515 1602q0 160 107 193q24 7 51 7q67 0 177 -50q80 -35 106 -36q43 0 56 60q2 12 4 25h86q0 -152 -89 -189q-24 -10 -51 -10q-56 0 -165 51q-99 43 -130 46q-56 0 -68 -95v-2h-84z" />
<glyph unicode="&#xd6;" horiz-adv-x="1616" d="M120 722q0 335 173 538q174 205 478 219q21 1 41 1q303 0 487 -193q178 -188 195 -503q2 -32 2 -64q0 -323 -167 -522q-176 -207 -487 -217q-16 -1 -31 -1q-331 0 -516 209q-175 199 -175 533zM297 721q0 -305 155 -464q133 -137 357 -137q285 0 417 214q94 153 94 387 q0 307 -150 473q-134 147 -359 147q-265 0 -401 -197q-113 -163 -113 -423zM480 1709q0 64 54 93q26 13 57 13q66 0 96 -51q15 -25 15 -55q0 -63 -53 -93q-27 -14 -58 -14q-66 0 -96 51q-15 26 -15 56zM914 1709q0 64 54 93q26 13 57 13q66 0 96 -51q15 -25 15 -55 q0 -63 -53 -93q-27 -14 -58 -14q-66 0 -96 51q-15 26 -15 56z" />
<glyph unicode="&#xd7;" d="M218 344l296 313l-286 304l91 94l286 -304l283 300l95 -94l-288 -300l291 -310l-87 -94l-294 309l-296 -309z" />
<glyph unicode="&#xd8;" horiz-adv-x="1616" d="M120 722q0 335 173 538q174 205 478 219q21 1 41 1q303 0 487 -193q178 -188 195 -503q2 -32 2 -64q0 -323 -167 -522q-176 -207 -487 -217q-16 -1 -31 -1q-331 0 -516 209q-175 199 -175 533zM297 721q0 -305 155 -464q133 -137 357 -137q285 0 417 214q94 153 94 387 q0 307 -150 473q-134 147 -359 147q-265 0 -401 -197q-113 -163 -113 -423zM419 -195l718 1857l102 -38l-724 -1852z" />
<glyph unicode="&#xd9;" horiz-adv-x="1412" d="M134 529v931h176v-928q2 -410 396 -411q318 0 381 270q15 64 15 141v928h176v-934q0 -261 -158 -407q-152 -138 -414 -138q-331 0 -477 207q-95 136 -95 341zM389 2004h188l176 -402h-94z" />
<glyph unicode="&#xda;" horiz-adv-x="1412" d="M134 529v931h176v-928q2 -410 396 -411q318 0 381 270q15 64 15 141v928h176v-934q0 -261 -158 -407q-152 -138 -414 -138q-331 0 -477 207q-95 136 -95 341zM658 1602l183 402h206l-292 -402h-97z" />
<glyph unicode="&#xdb;" horiz-adv-x="1412" d="M134 529v931h176v-928q2 -410 396 -411q318 0 381 270q15 64 15 141v928h176v-934q0 -261 -158 -407q-152 -138 -414 -138q-331 0 -477 207q-95 136 -95 341zM438 1602l180 373h187l168 -373h-112l-154 274l-158 -274h-111z" />
<glyph unicode="&#xdc;" horiz-adv-x="1412" d="M134 529v931h176v-928q2 -410 396 -411q318 0 381 270q15 64 15 141v928h176v-934q0 -261 -158 -407q-152 -138 -414 -138q-331 0 -477 207q-95 136 -95 341zM378 1709q0 64 54 93q26 13 57 13q66 0 96 -51q15 -25 15 -55q0 -63 -53 -93q-27 -14 -58 -14q-66 0 -96 51 q-15 26 -15 56zM812 1709q0 64 54 93q26 13 57 13q66 0 96 -51q15 -25 15 -55q0 -63 -53 -93q-27 -14 -58 -14q-66 0 -96 51q-15 26 -15 56z" />
<glyph unicode="&#xdd;" horiz-adv-x="1234" d="M50 1460h174l405 -710l381 710h174l-469 -855v-605h-170v603zM568 1602l183 402h206l-292 -402h-97z" />
<glyph unicode="&#xde;" horiz-adv-x="1051" d="M164 0v1460h176v-319h190q324 0 417 -155q42 -70 42 -171q0 -218 -146 -301q-111 -63 -316 -63h-187v-451h-176zM340 579h183q170 0 231 52q59 52 59 182q0 135 -103 178q-64 25 -181 25h-189v-437z" />
<glyph unicode="&#xdf;" horiz-adv-x="1132" d="M134 0v1019q2 460 419 461q192 0 292 -109q75 -81 75 -200q0 -117 -97 -240q-13 -17 -39 -48q-60 -70 -69 -100q-4 -12 -4 -22q0 -40 72 -92q16 -12 54 -37q115 -76 164 -130q88 -97 88 -216q0 -166 -116 -248q-83 -58 -206 -58q-160 0 -307 66q-12 5 -22 10l44 122 q130 -67 266 -67q122 0 165 92q16 37 16 80q0 91 -104 177q-15 13 -120 89q-99 72 -128 127q-18 35 -18 71q0 72 63 151q10 13 31 37q67 80 89 130q21 52 21 107q0 118 -98 160q-46 20 -107 20q-156 0 -214 -95q-46 -77 -46 -234v-1023h-164z" />
<glyph unicode="&#xe0;" horiz-adv-x="1050" d="M97 286q0 208 173 283q115 50 315 50h169v104q0 181 -138 219q-41 11 -93 11q-152 0 -295 -55q-24 -9 -45 -19l-45 122q155 72 354 79h28q325 0 384 -250q14 -59 14 -131v-698h-126l-18 146q-137 -167 -354 -167q-174 0 -261 109q-62 79 -62 197zM190 1604h188l176 -402 h-94zM255 285q0 -116 86 -163q40 -21 89 -21q205 1 324 175v233h-127q-243 0 -319 -68q-53 -49 -53 -156z" />
<glyph unicode="&#xe1;" horiz-adv-x="1050" d="M97 286q0 208 173 283q115 50 315 50h169v104q0 181 -138 219q-41 11 -93 11q-152 0 -295 -55q-24 -9 -45 -19l-45 122q155 72 354 79h28q325 0 384 -250q14 -59 14 -131v-698h-126l-18 146q-137 -167 -354 -167q-174 0 -261 109q-62 79 -62 197zM255 285q0 -116 86 -163 q40 -21 89 -21q205 1 324 175v233h-127q-243 0 -319 -68q-53 -49 -53 -156zM459 1202l183 402h206l-292 -402h-97z" />
<glyph unicode="&#xe2;" horiz-adv-x="1050" d="M97 286q0 208 173 283q115 50 315 50h169v104q0 181 -138 219q-41 11 -93 11q-152 0 -295 -55q-24 -9 -45 -19l-45 122q155 72 354 79h28q325 0 384 -250q14 -59 14 -131v-698h-126l-18 146q-137 -167 -354 -167q-174 0 -261 109q-62 79 -62 197zM240 1202l180 373h187 l168 -373h-112l-154 274l-158 -274h-111zM255 285q0 -116 86 -163q40 -21 89 -21q205 1 324 175v233h-127q-243 0 -319 -68q-53 -49 -53 -156z" />
<glyph unicode="&#xe3;" horiz-adv-x="1050" d="M97 286q0 208 173 283q115 50 315 50h169v104q0 181 -138 219q-41 11 -93 11q-152 0 -295 -55q-24 -9 -45 -19l-45 122q155 72 354 79h28q325 0 384 -250q14 -59 14 -131v-698h-126l-18 146q-137 -167 -354 -167q-174 0 -261 109q-62 79 -62 197zM214 1202q0 160 107 193 q24 7 51 7q67 0 177 -50q80 -35 106 -36q43 0 56 60q2 12 4 25h86q0 -152 -89 -189q-24 -10 -51 -10q-56 0 -165 51q-99 43 -130 46q-56 0 -68 -95v-2h-84zM255 285q0 -116 86 -163q40 -21 89 -21q205 1 324 175v233h-127q-243 0 -319 -68q-53 -49 -53 -156z" />
<glyph unicode="&#xe4;" horiz-adv-x="1050" d="M97 286q0 208 173 283q115 50 315 50h169v104q0 181 -138 219q-41 11 -93 11q-152 0 -295 -55q-24 -9 -45 -19l-45 122q155 72 354 79h28q325 0 384 -250q14 -59 14 -131v-698h-126l-18 146q-137 -167 -354 -167q-174 0 -261 109q-62 79 -62 197zM180 1309q0 64 54 93 q26 13 57 13q66 0 96 -51q15 -25 15 -55q0 -63 -53 -93q-27 -14 -58 -14q-66 0 -96 51q-15 26 -15 56zM255 285q0 -116 86 -163q40 -21 89 -21q205 1 324 175v233h-127q-243 0 -319 -68q-53 -49 -53 -156zM614 1309q0 64 54 93q26 13 57 13q66 0 96 -51q15 -25 15 -55 q0 -63 -53 -93q-27 -14 -58 -14q-66 0 -96 51q-15 26 -15 56z" />
<glyph unicode="&#xe5;" horiz-adv-x="1050" d="M97 286q0 208 173 283q115 50 315 50h169v104q0 181 -138 219q-41 11 -93 11q-152 0 -295 -55q-24 -9 -45 -19l-45 122q155 72 354 79h28q325 0 384 -250q14 -59 14 -131v-698h-126l-18 146q-137 -167 -354 -167q-174 0 -261 109q-62 79 -62 197zM255 285q0 -116 86 -163 q40 -21 89 -21q205 1 324 175v233h-127q-243 0 -319 -68q-53 -49 -53 -156zM324 1378q0 87 68 138q50 38 116 38q95 0 148 -70q35 -46 35 -106q0 -87 -68 -139q-50 -37 -115 -37q-94 0 -148 69q-36 47 -36 107zM412 1377q0 -57 45 -86q24 -14 51 -14q56 0 83 49q13 24 13 51 q0 56 -45 85q-23 14 -51 14q-55 0 -83 -48q-13 -24 -13 -51z" />
<glyph unicode="&#xe6;" horiz-adv-x="1709" d="M97 301q0 194 184 262q117 43 320 43h163v116q0 181 -133 219q-41 12 -94 12q-191 0 -333 -65q-11 -4 -20 -9l-46 121q172 80 394 80q201 0 290 -114q44 -57 53 -136q36 124 160 195q96 55 206 55q216 0 315 -126q59 -75 59 -173q0 -131 -95 -193q-126 -84 -499 -92 q-49 -1 -102 -1q15 -388 337 -389q139 0 262 57q26 12 55 27l35 -117q-154 -93 -361 -93q-245 0 -366 171q-5 6 -8 11q-78 -88 -231 -142q-115 -40 -222 -40q-163 0 -251 103q-72 85 -72 218zM253 304q0 -156 116 -193q32 -10 69 -10q119 0 252 73q73 41 120 90 q-40 96 -44 224v8h-155q-246 0 -317 -72q-41 -43 -41 -120zM922 603q361 0 478 55q84 41 85 122q0 98 -95 144q-60 29 -146 29q-184 0 -268 -156q-43 -81 -54 -194z" />
<glyph unicode="&#xe7;" horiz-adv-x="935" d="M84 524q0 270 152 422q135 134 345 134q159 0 271 -62q10 -5 17 -10l-47 -114q-98 58 -221 58q-166 0 -261 -129q-86 -116 -86 -299q0 -221 120 -332q92 -84 237 -84q115 0 214 53q5 3 9 5l31 -113q-54 -43 -169 -63q-57 -10 -116 -10q-232 0 -367 154q-129 148 -129 390 zM347 -393l88 386h83l-38 -386h-133z" />
<glyph unicode="&#xe8;" horiz-adv-x="1068" d="M84 524q0 257 141 410q127 139 323 146h18q242 0 345 -193q63 -121 63 -300l-6 -84h-715q11 -277 190 -363q71 -34 161 -34q126 0 260 63q20 9 43 21l35 -117q-150 -89 -335 -93h-22q-221 0 -357 142q-144 149 -144 402zM212 1604h188l176 -402h-94zM258 611h576 q-14 341 -264 342q-149 0 -236 -121q-64 -89 -76 -221z" />
<glyph unicode="&#xe9;" horiz-adv-x="1068" d="M84 524q0 257 141 410q127 139 323 146h18q242 0 345 -193q63 -121 63 -300l-6 -84h-715q11 -277 190 -363q71 -34 161 -34q126 0 260 63q20 9 43 21l35 -117q-150 -89 -335 -93h-22q-221 0 -357 142q-144 149 -144 402zM258 611h576q-14 341 -264 342q-149 0 -236 -121 q-64 -89 -76 -221zM480 1202l183 402h206l-292 -402h-97z" />
<glyph unicode="&#xea;" horiz-adv-x="1068" d="M84 524q0 257 141 410q127 139 323 146h18q242 0 345 -193q63 -121 63 -300l-6 -84h-715q11 -277 190 -363q71 -34 161 -34q126 0 260 63q20 9 43 21l35 -117q-150 -89 -335 -93h-22q-221 0 -357 142q-144 149 -144 402zM258 611h576q-14 341 -264 342q-149 0 -236 -121 q-64 -89 -76 -221zM262 1202l180 373h187l168 -373h-112l-154 274l-158 -274h-111z" />
<glyph unicode="&#xeb;" horiz-adv-x="1068" d="M84 524q0 257 141 410q127 139 323 146h18q242 0 345 -193q63 -121 63 -300l-6 -84h-715q11 -277 190 -363q71 -34 161 -34q126 0 260 63q20 9 43 21l35 -117q-150 -89 -335 -93h-22q-221 0 -357 142q-144 149 -144 402zM201 1309q0 64 54 93q26 13 57 13q66 0 96 -51 q15 -25 15 -55q0 -63 -53 -93q-27 -14 -58 -14q-66 0 -96 51q-15 26 -15 56zM258 611h576q-14 341 -264 342q-149 0 -236 -121q-64 -89 -76 -221zM635 1309q0 64 54 93q26 13 57 13q66 0 96 -51q15 -25 15 -55q0 -63 -53 -93q-27 -14 -58 -14q-66 0 -96 51q-15 26 -15 56z " />
<glyph unicode="&#xec;" horiz-adv-x="427" d="M-71 1604h188l176 -402h-94zM164 0v1058h164v-1058h-164z" />
<glyph unicode="&#xed;" horiz-adv-x="427" d="M164 0v1058h164v-1058h-164zM198 1202l183 402h206l-292 -402h-97z" />
<glyph unicode="&#xee;" horiz-adv-x="427" d="M-22 1202l180 373h187l168 -373h-112l-154 274l-158 -274h-111zM164 0v1058h164v-1058h-164z" />
<glyph unicode="&#xef;" horiz-adv-x="427" d="M-82 1309q0 64 54 93q26 13 57 13q66 0 96 -51q15 -25 15 -55q0 -63 -53 -93q-27 -14 -58 -14q-66 0 -96 51q-15 26 -15 56zM164 0v1058h164v-1058h-164zM352 1309q0 64 54 93q26 13 57 13q66 0 96 -51q15 -25 15 -55q0 -63 -53 -93q-27 -14 -58 -14q-66 0 -96 51 q-15 26 -15 56z" />
<glyph unicode="&#xf0;" horiz-adv-x="1244" d="M125 463v15q0 210 133 342q130 129 336 133h11q127 0 224 -68q7 -4 50 -37q-93 171 -335 405l-256 -98l-47 107l224 86l-216 200h185l155 -151l289 109l48 -105l-253 -94q235 -249 329 -407q15 -25 28 -50q75 -144 84 -330q1 -20 1 -40q0 -233 -135 -368 q-132 -132 -360 -132q-236 0 -373 155q-117 133 -122 328zM284 477q0 -161 91 -265q95 -106 251 -106q206 0 291 157q50 91 50 223q0 142 -89 240q-98 107 -258 107q-172 0 -264 -122q-72 -95 -72 -234z" />
<glyph unicode="&#xf1;" horiz-adv-x="1133" d="M132 0v1058h144l18 -146q121 167 359 168q274 0 335 -252q19 -78 19 -181v-647h-166v665q0 190 -83 251q-51 37 -134 37q-325 -2 -326 -363v-590h-166zM276 1202q0 160 107 193q24 7 51 7q67 0 177 -50q80 -35 106 -36q43 0 56 60q2 12 4 25h86q0 -152 -89 -189 q-24 -10 -51 -10q-56 0 -165 51q-99 43 -130 46q-56 0 -68 -95v-2h-84z" />
<glyph unicode="&#xf2;" horiz-adv-x="1165" d="M84 528q0 260 141 410q134 142 357 142q247 0 382 -169q117 -148 117 -383q0 -237 -131 -388t-346 -160h-22q-232 0 -368 157q-130 151 -130 391zM254 527q0 -228 115 -340q84 -81 213 -81q201 0 283 177q46 100 46 243q0 249 -127 358q-80 69 -202 69q-188 0 -273 -164 q-55 -106 -55 -262zM266 1604h188l176 -402h-94z" />
<glyph unicode="&#xf3;" horiz-adv-x="1165" d="M84 528q0 260 141 410q134 142 357 142q247 0 382 -169q117 -148 117 -383q0 -237 -131 -388t-346 -160h-22q-232 0 -368 157q-130 151 -130 391zM254 527q0 -228 115 -340q84 -81 213 -81q201 0 283 177q46 100 46 243q0 249 -127 358q-80 69 -202 69q-188 0 -273 -164 q-55 -106 -55 -262zM534 1202l183 402h206l-292 -402h-97z" />
<glyph unicode="&#xf4;" horiz-adv-x="1165" d="M84 528q0 260 141 410q134 142 357 142q247 0 382 -169q117 -148 117 -383q0 -237 -131 -388t-346 -160h-22q-232 0 -368 157q-130 151 -130 391zM254 527q0 -228 115 -340q84 -81 213 -81q201 0 283 177q46 100 46 243q0 249 -127 358q-80 69 -202 69q-188 0 -273 -164 q-55 -106 -55 -262zM315 1202l180 373h187l168 -373h-112l-154 274l-158 -274h-111z" />
<glyph unicode="&#xf5;" horiz-adv-x="1165" d="M84 528q0 260 141 410q134 142 357 142q247 0 382 -169q117 -148 117 -383q0 -237 -131 -388t-346 -160h-22q-232 0 -368 157q-130 151 -130 391zM254 527q0 -228 115 -340q84 -81 213 -81q201 0 283 177q46 100 46 243q0 249 -127 358q-80 69 -202 69q-188 0 -273 -164 q-55 -106 -55 -262zM289 1202q0 160 107 193q24 7 51 7q67 0 177 -50q80 -35 106 -36q43 0 56 60q2 12 4 25h86q0 -152 -89 -189q-24 -10 -51 -10q-56 0 -165 51q-99 43 -130 46q-56 0 -68 -95v-2h-84z" />
<glyph unicode="&#xf6;" horiz-adv-x="1165" d="M84 528q0 260 141 410q134 142 357 142q247 0 382 -169q117 -148 117 -383q0 -237 -131 -388t-346 -160h-22q-232 0 -368 157q-130 151 -130 391zM254 527q0 -228 115 -340q84 -81 213 -81q201 0 283 177q46 100 46 243q0 249 -127 358q-80 69 -202 69q-188 0 -273 -164 q-55 -106 -55 -262zM254 1309q0 64 54 93q26 13 57 13q66 0 96 -51q15 -25 15 -55q0 -63 -53 -93q-27 -14 -58 -14q-66 0 -96 51q-15 26 -15 56zM688 1309q0 64 54 93q26 13 57 13q66 0 96 -51q15 -25 15 -55q0 -63 -53 -93q-27 -14 -58 -14q-66 0 -96 51q-15 26 -15 56z " />
<glyph unicode="&#xf7;" d="M126 495v135h951v-135h-951zM507 32v201h191v-201h-191zM507 871v197h193v-197h-193z" />
<glyph unicode="&#xf8;" horiz-adv-x="1165" d="M84 528q0 260 141 410q134 142 357 142q247 0 382 -169q117 -148 117 -383q0 -237 -131 -388t-346 -160h-22q-232 0 -368 157q-130 151 -130 391zM228 -113l719 1329l71 -37l-725 -1329zM254 527q0 -228 115 -340q84 -81 213 -81q201 0 283 177q46 100 46 243 q0 249 -127 358q-80 69 -202 69q-188 0 -273 -164q-55 -106 -55 -262z" />
<glyph unicode="&#xf9;" horiz-adv-x="1125" d="M126 412v646h166v-664q0 -217 123 -269q44 -18 104 -18q278 0 304 289q3 33 3 68v594h166v-1058h-144l-17 139q-67 -105 -175 -139q-66 -20 -157 -20q-315 0 -364 312q-9 56 -9 120zM242 1604h188l176 -402h-94z" />
<glyph unicode="&#xfa;" horiz-adv-x="1125" d="M126 412v646h166v-664q0 -217 123 -269q44 -18 104 -18q278 0 304 289q3 33 3 68v594h166v-1058h-144l-17 139q-67 -105 -175 -139q-66 -20 -157 -20q-315 0 -364 312q-9 56 -9 120zM510 1202l183 402h206l-292 -402h-97z" />
<glyph unicode="&#xfb;" horiz-adv-x="1125" d="M126 412v646h166v-664q0 -217 123 -269q44 -18 104 -18q278 0 304 289q3 33 3 68v594h166v-1058h-144l-17 139q-67 -105 -175 -139q-66 -20 -157 -20q-315 0 -364 312q-9 56 -9 120zM292 1202l180 373h187l168 -373h-112l-154 274l-158 -274h-111z" />
<glyph unicode="&#xfc;" horiz-adv-x="1125" d="M126 412v646h166v-664q0 -217 123 -269q44 -18 104 -18q278 0 304 289q3 33 3 68v594h166v-1058h-144l-17 139q-67 -105 -175 -139q-66 -20 -157 -20q-315 0 -364 312q-9 56 -9 120zM231 1309q0 64 54 93q26 13 57 13q66 0 96 -51q15 -25 15 -55q0 -63 -53 -93 q-27 -14 -58 -14q-66 0 -96 51q-15 26 -15 56zM665 1309q0 64 54 93q26 13 57 13q66 0 96 -51q15 -25 15 -55q0 -63 -53 -93q-27 -14 -58 -14q-66 0 -96 51q-15 26 -15 56z" />
<glyph unicode="&#xfd;" horiz-adv-x="1075" d="M66 1058h169l330 -845l302 845h168l-557 -1456l-149 32l156 398zM502 1202l183 402h206l-292 -402h-97z" />
<glyph unicode="&#xfe;" horiz-adv-x="1165" d="M136 0v1460l168 12v-394l-1 -184q93 141 245 176q44 10 89 10q260 0 371 -212q71 -136 71 -340q0 -291 -149 -436q-116 -112 -301 -112q-190 0 -313 162q-16 21 -30 44l-15 -186h-135zM136 297h168v-761h-168v761zM300 545q0 -318 174 -407q61 -31 139 -31q295 2 296 421 q-2 425 -288 426q-254 0 -308 -262q-13 -67 -13 -147z" />
<glyph unicode="&#xff;" horiz-adv-x="1075" d="M66 1058h169l330 -845l302 845h168l-557 -1456l-149 32l156 398zM222 1309q0 64 54 93q26 13 57 13q66 0 96 -51q15 -25 15 -55q0 -63 -53 -93q-27 -14 -58 -14q-66 0 -96 51q-15 26 -15 56zM656 1309q0 64 54 93q26 13 57 13q66 0 96 -51q15 -25 15 -55q0 -63 -53 -93 q-27 -14 -58 -14q-66 0 -96 51q-15 26 -15 56z" />
<glyph unicode="&#x152;" horiz-adv-x="1881" d="M120 726q0 370 224 564q198 170 529 170h921l-6 -132h-700v-507h638v-132h-638v-555h721l-12 -134h-895q-405 0 -609 218q-173 186 -173 508zM296 731q0 -512 445 -586q78 -13 169 -13h2v1194h-29q-439 0 -551 -340q-36 -111 -36 -255z" />
<glyph unicode="&#x178;" horiz-adv-x="1234" d="M50 1460h174l405 -710l381 710h174l-469 -855v-605h-170v603zM289 1709q0 64 54 93q26 13 57 13q66 0 96 -51q15 -25 15 -55q0 -63 -53 -93q-27 -14 -58 -14q-66 0 -96 51q-15 26 -15 56zM723 1709q0 64 54 93q26 13 57 13q66 0 96 -51q15 -25 15 -55q0 -63 -53 -93 q-27 -14 -58 -14q-66 0 -96 51q-15 26 -15 56z" />
<glyph unicode="&#x2c6;" horiz-adv-x="775" d="M108 1087l180 373h187l168 -373h-112l-154 274l-158 -274h-111z" />
<glyph unicode="&#x2dc;" horiz-adv-x="874" d="M129 1261q0 160 107 193q24 7 51 7q67 0 177 -50q80 -35 106 -36q43 0 56 60q2 12 4 25h86q0 -152 -89 -189q-24 -10 -51 -10q-56 0 -165 51q-99 43 -130 46q-56 0 -68 -95v-2h-84z" />
<glyph unicode="&#x2000;" horiz-adv-x="1002" />
<glyph unicode="&#x2001;" horiz-adv-x="2004" />
<glyph unicode="&#x2002;" horiz-adv-x="1002" />
<glyph unicode="&#x2003;" horiz-adv-x="2004" />
<glyph unicode="&#x2004;" horiz-adv-x="668" />
<glyph unicode="&#x2005;" horiz-adv-x="501" />
<glyph unicode="&#x2006;" horiz-adv-x="334" />
<glyph unicode="&#x2007;" horiz-adv-x="334" />
<glyph unicode="&#x2008;" horiz-adv-x="250" />
<glyph unicode="&#x2009;" horiz-adv-x="400" />
<glyph unicode="&#x200a;" horiz-adv-x="111" />
<glyph unicode="&#x2010;" horiz-adv-x="1205" d="M268 579v135h669v-135h-669z" />
<glyph unicode="&#x2011;" horiz-adv-x="1205" d="M268 579v135h669v-135h-669z" />
<glyph unicode="&#x2012;" horiz-adv-x="1205" d="M268 579v135h669v-135h-669z" />
<glyph unicode="&#x2013;" horiz-adv-x="1236" d="M119 521v134h1004v-134h-1004z" />
<glyph unicode="&#x2014;" horiz-adv-x="2356" d="M132 521v134h2112v-134h-2112z" />
<glyph unicode="&#x2018;" horiz-adv-x="463" d="M202 1440h112l15 -425h-126z" />
<glyph unicode="&#x2019;" horiz-adv-x="456" d="M129 1058l87 402h134l-124 -402h-97z" />
<glyph unicode="&#x201a;" horiz-adv-x="436" d="M97 -248l85 452h138l-124 -452h-99z" />
<glyph unicode="&#x201c;" horiz-adv-x="762" d="M127 1019l109 514l118 66l-76 -513zM428 1019l112 514l113 66l-68 -513z" />
<glyph unicode="&#x201d;" horiz-adv-x="682" d="M84 1058l87 402h139l-128 -402h-98zM377 1062l85 398h142l-128 -398h-99z" />
<glyph unicode="&#x201e;" horiz-adv-x="708" d="M125 -248l82 452h136l-120 -452h-98zM387 -248l81 452h140l-125 -452h-96z" />
<glyph unicode="&#x2022;" horiz-adv-x="831" d="M110 732q0 161 111 253q88 73 206 73q134 0 223 -88q90 -90 90 -233q0 -160 -112 -252q-88 -72 -206 -72q-134 0 -222 88q-90 89 -90 231z" />
<glyph unicode="&#x2026;" horiz-adv-x="1448" d="M114 117q0 69 52 105q33 23 78 23q83 0 116 -68q13 -28 13 -60q0 -70 -52 -106q-33 -23 -77 -23q-81 0 -115 66q-15 30 -15 63zM596 117q0 70 52 106q33 22 77 22q82 0 116 -67q14 -29 14 -61q0 -69 -52 -106q-33 -23 -78 -23q-81 0 -115 67q-14 29 -14 62zM1076 117 q0 69 52 105q33 23 78 23q82 0 116 -67q14 -29 14 -61q0 -69 -52 -106q-33 -23 -78 -23q-81 0 -115 66q-15 30 -15 63z" />
<glyph unicode="&#x202f;" horiz-adv-x="400" />
<glyph unicode="&#x2039;" horiz-adv-x="599" d="M95 560l298 420h132l-290 -421l284 -411h-131z" />
<glyph unicode="&#x203a;" horiz-adv-x="607" d="M111 148l290 420l-284 412h131l294 -412l-298 -420h-133z" />
<glyph unicode="&#x205f;" horiz-adv-x="501" />
<glyph unicode="&#x20ac;" horiz-adv-x="1292" d="M17 524l8 109h136v175h-137l6 106h860l-8 -106h-635v-175h635l-8 -109h-857zM120 735q0 305 160 506q155 194 414 231q55 8 112 8q228 0 382 -98q11 -7 21 -14l-58 -115q-125 78 -295 87q-18 1 -35 1q-242 0 -384 -170q-140 -168 -140 -442q0 -277 146 -443 q146 -165 391 -165q161 0 325 77l41 -131q-162 -82 -369 -86h-16q-276 0 -462 167q-188 169 -225 457q-8 64 -8 130z" />
<glyph unicode="&#x2122;" horiz-adv-x="1770" d="M85 1365l1 86h608v-86h-261v-783h-95v783h-253zM830 582v869h136l275 -673l288 673h128v-869h-94v757l-291 -679h-77l-273 681v-759h-92z" />
<glyph unicode="&#x25fc;" horiz-adv-x="1060" d="M0 0v1060h1060v-1060h-1060z" />
<glyph unicode="&#xfb03;" horiz-adv-x="2003" d="M31 953l5 87l187 17v67q0 253 133 324q61 32 156 32q58 0 144 -17l-12 -115q-50 10 -102 10q-80 0 -110 -32q-43 -47 -43 -192v-76h251v-105h-251v-953h-166v953h-192zM781 953l5 87l187 17v67q0 253 133 324q61 32 156 32q58 0 144 -17l-12 -115q-50 10 -102 10 q-80 0 -110 -32q-43 -47 -43 -192v-76h251v-105h-251v-953h-166v953h-192zM1638 1354q0 66 54 93q25 13 55 13q67 0 96 -52q13 -25 13 -54q0 -65 -53 -94q-26 -13 -56 -13q-67 0 -96 53q-13 25 -13 54zM1664 0v1058h164v-1058h-164z" />
<glyph unicode="&#xfb04;" horiz-adv-x="2097" d="M31 953l5 87l187 17v67q0 253 133 324q61 32 156 32q58 0 144 -17l-12 -115q-50 10 -102 10q-80 0 -110 -32q-43 -47 -43 -192v-76h251v-105h-251v-953h-166v953h-192zM781 953l5 87l187 17v67q0 253 133 324q61 32 156 32q58 0 144 -17l-12 -115q-50 10 -102 10 q-80 0 -110 -32q-43 -47 -43 -192v-76h251v-105h-251v-953h-166v953h-192zM1654 303v1157l164 12v-1172q0 -111 36 -147q32 -30 129 -40q21 -2 54 -4l45 -3l-9 -114h-79q-178 0 -253 60q-87 71 -87 251z" />
</font>
</defs>
</svg>
